  0
SECTION
  2
HEADER
  9
$ACADVER
  1
AC1014
  9
$ACADMAINTVER
 70
     9
  9
$DWGCODEPAGE
  3
ANSI_932
  9
$INSBASE
 10
0.0
 20
0.0
 30
0.0
  9
$EXTMIN
 10
-85.32319331951839
 20
-458.4526346831728
 30
-0.000000000000013
  9
$EXTMAX
 10
387.97522204087
 20
164.2799090092071
 30
0.0000000000000023
  9
$LIMMIN
 10
-459.0
 20
-527.0
  9
$LIMMAX
 10
682.0
 20
313.0
  9
$ORTHOMODE
 70
     0
  9
$REGENMODE
 70
     1
  9
$FILLMODE
 70
     1
  9
$QTEXTMODE
 70
     0
  9
$MIRRTEXT
 70
     1
  9
$DRAGMODE
 70
     2
  9
$LTSCALE
 40
5.0
  9
$OSMODE
 70
    39
  9
$ATTMODE
 70
     1
  9
$TEXTSIZE
 40
5.0
  9
$TRACEWID
 40
0.05
  9
$TEXTSTYLE
  7
STANDARD1
  9
$CLAYER
  8
30
  9
$CELTYPE
  6
CONTINUOUS
  9
$CECOLOR
 62
   256
  9
$CELTSCALE
 40
1.0
  9
$DELOBJ
 70
     1
  9
$DISPSILH
 70
     0
  9
$DIMSCALE
 40
1.0
  9
$DIMASZ
 40
2.0
  9
$DIMEXO
 40
1.0
  9
$DIMDLI
 40
0.5
  9
$DIMRND
 40
0.0
  9
$DIMDLE
 40
0.0
  9
$DIMEXE
 40
0.5
  9
$DIMTP
 40
0.0
  9
$DIMTM
 40
0.0
  9
$DIMTXT
 40
4.0
  9
$DIMCEN
 40
0.09
  9
$DIMTSZ
 40
0.0
  9
$DIMTOL
 70
     0
  9
$DIMLIM
 70
     0
  9
$DIMTIH
 70
     0
  9
$DIMTOH
 70
     0
  9
$DIMSE1
 70
     0
  9
$DIMSE2
 70
     0
  9
$DIMTAD
 70
     3
  9
$DIMZIN
 70
    12
  9
$DIMBLK
  1
OPEN
  9
$DIMASO
 70
     1
  9
$DIMSHO
 70
     1
  9
$DIMPOST
  1

  9
$DIMAPOST
  1

  9
$DIMALT
 70
     0
  9
$DIMALTD
 70
     2
  9
$DIMALTF
 40
25.4
  9
$DIMLFAC
 40
1.0
  9
$DIMTOFL
 70
     0
  9
$DIMTVP
 40
0.0
  9
$DIMTIX
 70
     0
  9
$DIMSOXD
 70
     0
  9
$DIMSAH
 70
     0
  9
$DIMBLK1
  1

  9
$DIMBLK2
  1

  9
$DIMSTYLE
  2
STANDARD
  9
$DIMCLRD
 70
     0
  9
$DIMCLRE
 70
     0
  9
$DIMCLRT
 70
     0
  9
$DIMTFAC
 40
1.0
  9
$DIMGAP
 40
1.0
  9
$DIMJUST
 70
     0
  9
$DIMSD1
 70
     0
  9
$DIMSD2
 70
     0
  9
$DIMTOLJ
 70
     1
  9
$DIMTZIN
 70
     0
  9
$DIMALTZ
 70
     0
  9
$DIMALTTZ
 70
     0
  9
$DIMFIT
 70
     3
  9
$DIMUPT
 70
     0
  9
$DIMUNIT
 70
     2
  9
$DIMDEC
 70
     1
  9
$DIMTDEC
 70
     1
  9
$DIMALTU
 70
     2
  9
$DIMALTTD
 70
     2
  9
$DIMTXSTY
  7
STANDARD
  9
$DIMAUNIT
 70
     0
  9
$LUNITS
 70
     2
  9
$LUPREC
 70
     4
  9
$SKETCHINC
 40
0.1
  9
$FILLETRAD
 40
0.0
  9
$AUNITS
 70
     0
  9
$AUPREC
 70
     0
  9
$MENU
  1
.
  9
$ELEVATION
 40
0.0
  9
$PELEVATION
 40
0.0
  9
$THICKNESS
 40
0.0
  9
$LIMCHECK
 70
     0
  9
$BLIPMODE
 70
     0
  9
$CHAMFERA
 40
0.0
  9
$CHAMFERB
 40
0.0
  9
$CHAMFERC
 40
0.0
  9
$CHAMFERD
 40
0.0
  9
$SKPOLY
 70
     0
  9
$TDCREATE
 40
2452286.555658657
  9
$TDUPDATE
 40
2453635.746689270
  9
$TDINDWG
 40
1.2738168634
  9
$TDUSRTIMER
 40
1.2738165046
  9
$USRTIMER
 70
     1
  9
$ANGBASE
 50
0.0
  9
$ANGDIR
 70
     0
  9
$PDMODE
 70
     0
  9
$PDSIZE
 40
0.0
  9
$PLINEWID
 40
0.0
  9
$COORDS
 70
     1
  9
$SPLFRAME
 70
     0
  9
$SPLINETYPE
 70
     6
  9
$SPLINESEGS
 70
     8
  9
$ATTDIA
 70
     0
  9
$ATTREQ
 70
     1
  9
$HANDLING
 70
-16383
  9
$HANDSEED
  5
89C4
  9
$SURFTAB1
 70
     6
  9
$SURFTAB2
 70
     6
  9
$SURFTYPE
 70
     6
  9
$SURFU
 70
     6
  9
$SURFV
 70
     6
  9
$UCSNAME
  2

  9
$UCSORG
 10
0.0
 20
0.0
 30
0.0
  9
$UCSXDIR
 10
1.0
 20
0.0
 30
0.0
  9
$UCSYDIR
 10
0.0
 20
1.0
 30
0.0
  9
$PUCSNAME
  2

  9
$PUCSORG
 10
0.0
 20
0.0
 30
0.0
  9
$PUCSXDIR
 10
1.0
 20
0.0
 30
0.0
  9
$PUCSYDIR
 10
0.0
 20
1.0
 30
0.0
  9
$USERI1
 70
     0
  9
$USERI2
 70
     0
  9
$USERI3
 70
     0
  9
$USERI4
 70
     0
  9
$USERI5
 70
     0
  9
$USERR1
 40
0.0
  9
$USERR2
 40
0.0
  9
$USERR3
 40
0.0
  9
$USERR4
 40
0.0
  9
$USERR5
 40
0.0
  9
$WORLDVIEW
 70
     1
  9
$SHADEDGE
 70
     3
  9
$SHADEDIF
 70
    70
  9
$TILEMODE
 70
     1
  9
$MAXACTVP
 70
    48
  9
$PINSBASE
 10
0.0
 20
0.0
 30
0.0
  9
$PLIMCHECK
 70
     0
  9
$PEXTMIN
 10
4.273573370203961
 20
5.205246163471485
 30
0.0
  9
$PEXTMAX
 10
194.6100952986349
 20
283.0697008572913
 30
0.0
  9
$PLIMMIN
 10
-5.873748779296875
 20
-5.873749732971191
  9
$PLIMMAX
 10
204.0995788574218
 20
291.1369009017943
  9
$UNITMODE
 70
     0
  9
$VISRETAIN
 70
     1
  9
$PLINEGEN
 70
     0
  9
$PSLTSCALE
 70
     1
  9
$TREEDEPTH
 70
  3020
  9
$PICKSTYLE
 70
     1
  9
$CMLSTYLE
  2
STANDARD
  9
$CMLJUST
 70
     0
  9
$CMLSCALE
 40
1.0
  9
$PROXYGRAPHICS
 70
     1
  9
$MEASUREMENT
 70
     0
  0
ENDSEC
  0
SECTION
  2
CLASSES
  0
CLASS
  1
ACDBDICTIONARYWDFLT
  2
AcDbDictionaryWithDefault
  3
AutoCAD 2000
 90
        0
280
     0
281
     0
  0
CLASS
  1
ACDBPLACEHOLDER
  2
AcDbPlaceHolder
  3
AutoCAD 2000
 90
        0
280
     0
281
     0
  0
CLASS
  1
LAYOUT
  2
AcDbLayout
  3
AutoCAD 2000
 90
        0
280
     0
281
     0
  0
CLASS
  1
LONG_TRANSACTION
  2
AcDbLongTransaction
  3
AutoCAD 2000
 90
        0
280
     0
281
     0
  0
CLASS
  1
LWPOLYLINE
  2
AcDbPolyline
  3
AutoCAD 2000
 90
        0
280
     0
281
     1
  0
CLASS
  1
HATCH
  2
AcDbHatch
  3
AutoCAD 2000
 90
        0
280
     0
281
     1
  0
CLASS
  1
XRECORD
  2
AcDbXrecord
  3
AutoCAD 2000
 90
        0
280
     0
281
     0
  0
CLASS
  1
LONG_TRANSACTION
  2
AcDbLongTransaction
  3
AutoCAD 2000
 90
        0
280
     0
281
     0
  0
CLASS
  1
LWPOLYLINE
  2
AcDbPolyline
  3
AutoCAD 2000
 90
        0
280
     0
281
     1
  0
CLASS
  1
HATCH
  2
AcDbHatch
  3
AutoCAD 2000
 90
        0
280
     0
281
     1
  0
CLASS
  1
XRECORD
  2
AcDbXrecord
  3
AutoCAD 2000
 90
        0
280
     0
281
     0
  0
CLASS
  1
LONG_TRANSACTION
  2
AcDbLongTransaction
  3
AutoCAD 2000
 90
        0
280
     0
281
     0
  0
CLASS
  1
LWPOLYLINE
  2
AcDbPolyline
  3
AutoCAD 2000
 90
        0
280
     0
281
     1
  0
CLASS
  1
HATCH
  2
AcDbHatch
  3
AutoCAD 2000
 90
        0
280
     0
281
     1
  0
CLASS
  1
XRECORD
  2
AcDbXrecord
  3
AutoCAD 2000
 90
        0
280
     0
281
     0
  0
CLASS
  1
LONG_TRANSACTION
  2
AcDbLongTransaction
  3
AutoCAD 2000
 90
        0
280
     0
281
     0
  0
CLASS
  1
LWPOLYLINE
  2
AcDbPolyline
  3
AutoCAD 2000
 90
        0
280
     0
281
     1
  0
CLASS
  1
HATCH
  2
AcDbHatch
  3
AutoCAD 2000
 90
        0
280
     0
281
     1
  0
CLASS
  1
XRECORD
  2
AcDbXrecord
  3
AutoCAD 2000
 90
        0
280
     0
281
     0
  0
CLASS
  1
LONG_TRANSACTION
  2
AcDbLongTransaction
  3
AutoCAD 2000
 90
        0
280
     0
281
     0
  0
CLASS
  1
LWPOLYLINE
  2
AcDbPolyline
  3
AutoCAD 2000
 90
        0
280
     0
281
     1
  0
CLASS
  1
HATCH
  2
AcDbHatch
  3
AutoCAD 2000
 90
        0
280
     0
281
     1
  0
CLASS
  1
XRECORD
  2
AcDbXrecord
  3
AutoCAD 2000
 90
        0
280
     0
281
     0
  0
CLASS
  1
LONG_TRANSACTION
  2
AcDbLongTransaction
  3
AutoCAD 2000
 90
        0
280
     0
281
     0
  0
CLASS
  1
LWPOLYLINE
  2
AcDbPolyline
  3
AutoCAD 2000
 90
        0
280
     0
281
     1
  0
CLASS
  1
HATCH
  2
AcDbHatch
  3
AutoCAD 2000
 90
        0
280
     0
281
     1
  0
CLASS
  1
XRECORD
  2
AcDbXrecord
  3
AutoCAD 2000
 90
        0
280
     0
281
     0
  0
CLASS
  1
LONG_TRANSACTION
  2
AcDbLongTransaction
  3
AutoCAD 2000
 90
        0
280
     0
281
     0
  0
CLASS
  1
LWPOLYLINE
  2
AcDbPolyline
  3
AutoCAD 2000
 90
        0
280
     0
281
     1
  0
CLASS
  1
HATCH
  2
AcDbHatch
  3
AutoCAD 2000
 90
        0
280
     0
281
     1
  0
CLASS
  1
XRECORD
  2
AcDbXrecord
  3
AutoCAD 2000
 90
        0
280
     0
281
     0
  0
CLASS
  1
LONG_TRANSACTION
  2
AcDbLongTransaction
  3
AutoCAD 2000
 90
        0
280
     0
281
     0
  0
CLASS
  1
LWPOLYLINE
  2
AcDbPolyline
  3
AutoCAD 2000
 90
        0
280
     0
281
     1
  0
CLASS
  1
HATCH
  2
AcDbHatch
  3
AutoCAD 2000
 90
        0
280
     0
281
     1
  0
CLASS
  1
XRECORD
  2
AcDbXrecord
  3
AutoCAD 2000
 90
        0
280
     0
281
     0
  0
CLASS
  1
LONG_TRANSACTION
  2
AcDbLongTransaction
  3
AutoCAD 2000
 90
        0
280
     0
281
     0
  0
CLASS
  1
LWPOLYLINE
  2
AcDbPolyline
  3
AutoCAD 2000
 90
        0
280
     0
281
     1
  0
CLASS
  1
HATCH
  2
AcDbHatch
  3
AutoCAD 2000
 90
        0
280
     0
281
     1
  0
CLASS
  1
XRECORD
  2
AcDbXrecord
  3
AutoCAD 2000
 90
        0
280
     0
281
     0
  0
CLASS
  1
LONG_TRANSACTION
  2
AcDbLongTransaction
  3
AutoCAD 2000
 90
        0
280
     0
281
     0
  0
CLASS
  1
LWPOLYLINE
  2
AcDbPolyline
  3
AutoCAD 2000
 90
        0
280
     0
281
     1
  0
CLASS
  1
HATCH
  2
AcDbHatch
  3
AutoCAD 2000
 90
        0
280
     0
281
     1
  0
CLASS
  1
XRECORD
  2
AcDbXrecord
  3
AutoCAD 2000
 90
        0
280
     0
281
     0
  0
CLASS
  1
LONG_TRANSACTION
  2
AcDbLongTransaction
  3
AutoCAD 2000
 90
        0
280
     0
281
     0
  0
CLASS
  1
LWPOLYLINE
  2
AcDbPolyline
  3
AutoCAD 2000
 90
        0
280
     0
281
     1
  0
CLASS
  1
HATCH
  2
AcDbHatch
  3
AutoCAD 2000
 90
        0
280
     0
281
     1
  0
CLASS
  1
XRECORD
  2
AcDbXrecord
  3
AutoCAD 2000
 90
        0
280
     0
281
     0
  0
CLASS
  1
LONG_TRANSACTION
  2
AcDbLongTransaction
  3
AutoCAD 2000
 90
        0
280
     0
281
     0
  0
CLASS
  1
LWPOLYLINE
  2
AcDbPolyline
  3
AutoCAD 2000
 90
        0
280
     0
281
     1
  0
CLASS
  1
HATCH
  2
AcDbHatch
  3
AutoCAD 2000
 90
        0
280
     0
281
     1
  0
CLASS
  1
XRECORD
  2
AcDbXrecord
  3
AutoCAD 2000
 90
        0
280
     0
281
     0
  0
CLASS
  1
LONG_TRANSACTION
  2
AcDbLongTransaction
  3
AutoCAD 2000
 90
        0
280
     0
281
     0
  0
CLASS
  1
LWPOLYLINE
  2
AcDbPolyline
  3
AutoCAD 2000
 90
        0
280
     0
281
     1
  0
CLASS
  1
HATCH
  2
AcDbHatch
  3
AutoCAD 2000
 90
        0
280
     0
281
     1
  0
CLASS
  1
XRECORD
  2
AcDbXrecord
  3
AutoCAD 2000
 90
        0
280
     0
281
     0
  0
CLASS
  1
LONG_TRANSACTION
  2
AcDbLongTransaction
  3
AutoCAD 2000
 90
        0
280
     0
281
     0
  0
CLASS
  1
LWPOLYLINE
  2
AcDbPolyline
  3
AutoCAD 2000
 90
        0
280
     0
281
     1
  0
CLASS
  1
HATCH
  2
AcDbHatch
  3
AutoCAD 2000
 90
        0
280
     0
281
     1
  0
CLASS
  1
XRECORD
  2
AcDbXrecord
  3
AutoCAD 2000
 90
        0
280
     0
281
     0
  0
CLASS
  1
LONG_TRANSACTION
  2
AcDbLongTransaction
  3
AutoCAD 2000
 90
        0
280
     0
281
     0
  0
CLASS
  1
LWPOLYLINE
  2
AcDbPolyline
  3
AutoCAD 2000
 90
        0
280
     0
281
     1
  0
CLASS
  1
HATCH
  2
AcDbHatch
  3
AutoCAD 2000
 90
        0
280
     0
281
     1
  0
CLASS
  1
XRECORD
  2
AcDbXrecord
  3
AutoCAD 2000
 90
        0
280
     0
281
     0
  0
CLASS
  1
LONG_TRANSACTION
  2
AcDbLongTransaction
  3
AutoCAD 2000
 90
        0
280
     0
281
     0
  0
CLASS
  1
LWPOLYLINE
  2
AcDbPolyline
  3
AutoCAD 2000
 90
        0
280
     0
281
     1
  0
CLASS
  1
HATCH
  2
AcDbHatch
  3
AutoCAD 2000
 90
        0
280
     0
281
     1
  0
CLASS
  1
XRECORD
  2
AcDbXrecord
  3
AutoCAD 2000
 90
        0
280
     0
281
     0
  0
CLASS
  1
LONG_TRANSACTION
  2
AcDbLongTransaction
  3
AutoCAD 2000
 90
        0
280
     0
281
     0
  0
CLASS
  1
LWPOLYLINE
  2
AcDbPolyline
  3
AutoCAD 2000
 90
        0
280
     0
281
     1
  0
CLASS
  1
HATCH
  2
AcDbHatch
  3
AutoCAD 2000
 90
        0
280
     0
281
     1
  0
CLASS
  1
XRECORD
  2
AcDbXrecord
  3
AutoCAD 2000
 90
        0
280
     0
281
     0
  0
CLASS
  1
LONG_TRANSACTION
  2
AcDbLongTransaction
  3
AutoCAD 2000
 90
        0
280
     0
281
     0
  0
CLASS
  1
LWPOLYLINE
  2
AcDbPolyline
  3
AutoCAD 2000
 90
        0
280
     0
281
     1
  0
CLASS
  1
HATCH
  2
AcDbHatch
  3
AutoCAD 2000
 90
        0
280
     0
281
     1
  0
CLASS
  1
XRECORD
  2
AcDbXrecord
  3
AutoCAD 2000
 90
        0
280
     0
281
     0
  0
CLASS
  1
LONG_TRANSACTION
  2
AcDbLongTransaction
  3
AutoCAD 2000
 90
        0
280
     0
281
     0
  0
CLASS
  1
LWPOLYLINE
  2
AcDbPolyline
  3
AutoCAD 2000
 90
        0
280
     0
281
     1
  0
CLASS
  1
HATCH
  2
AcDbHatch
  3
AutoCAD 2000
 90
        0
280
     0
281
     1
  0
CLASS
  1
XRECORD
  2
AcDbXrecord
  3
AutoCAD 2000
 90
        0
280
     0
281
     0
  0
CLASS
  1
LONG_TRANSACTION
  2
AcDbLongTransaction
  3
AutoCAD 2000
 90
        0
280
     0
281
     0
  0
CLASS
  1
LWPOLYLINE
  2
AcDbPolyline
  3
AutoCAD 2000
 90
        0
280
     0
281
     1
  0
CLASS
  1
HATCH
  2
AcDbHatch
  3
AutoCAD 2000
 90
        0
280
     0
281
     1
  0
CLASS
  1
XRECORD
  2
AcDbXrecord
  3
AutoCAD 2000
 90
        0
280
     0
281
     0
  0
CLASS
  1
LONG_TRANSACTION
  2
AcDbLongTransaction
  3
AutoCAD 2000
 90
        0
280
     0
281
     0
  0
CLASS
  1
LWPOLYLINE
  2
AcDbPolyline
  3
AutoCAD 2000
 90
        0
280
     0
281
     1
  0
CLASS
  1
HATCH
  2
AcDbHatch
  3
AutoCAD 2000
 90
        0
280
     0
281
     1
  0
CLASS
  1
XRECORD
  2
AcDbXrecord
  3
AutoCAD 2000
 90
        0
280
     0
281
     0
  0
CLASS
  1
LONG_TRANSACTION
  2
AcDbLongTransaction
  3
AutoCAD 2000
 90
        0
280
     0
281
     0
  0
CLASS
  1
LWPOLYLINE
  2
AcDbPolyline
  3
AutoCAD 2000
 90
        0
280
     0
281
     1
  0
CLASS
  1
HATCH
  2
AcDbHatch
  3
AutoCAD 2000
 90
        0
280
     0
281
     1
  0
CLASS
  1
XRECORD
  2
AcDbXrecord
  3
AutoCAD 2000
 90
        0
280
     0
281
     0
  0
CLASS
  1
LONG_TRANSACTION
  2
AcDbLongTransaction
  3
AutoCAD 2000
 90
        0
280
     0
281
     0
  0
CLASS
  1
LWPOLYLINE
  2
AcDbPolyline
  3
AutoCAD 2000
 90
        0
280
     0
281
     1
  0
CLASS
  1
HATCH
  2
AcDbHatch
  3
AutoCAD 2000
 90
        0
280
     0
281
     1
  0
CLASS
  1
XRECORD
  2
AcDbXrecord
  3
AutoCAD 2000
 90
        0
280
     0
281
     0
  0
CLASS
  1
LONG_TRANSACTION
  2
AcDbLongTransaction
  3
AutoCAD 2000
 90
        0
280
     0
281
     0
  0
CLASS
  1
LWPOLYLINE
  2
AcDbPolyline
  3
AutoCAD 2000
 90
        0
280
     0
281
     1
  0
CLASS
  1
HATCH
  2
AcDbHatch
  3
AutoCAD 2000
 90
        0
280
     0
281
     1
  0
CLASS
  1
XRECORD
  2
AcDbXrecord
  3
AutoCAD 2000
 90
        0
280
     0
281
     0
  0
CLASS
  1
LONG_TRANSACTION
  2
AcDbLongTransaction
  3
AutoCAD 2000
 90
        0
280
     0
281
     0
  0
CLASS
  1
LWPOLYLINE
  2
AcDbPolyline
  3
AutoCAD 2000
 90
        0
280
     0
281
     1
  0
CLASS
  1
HATCH
  2
AcDbHatch
  3
AutoCAD 2000
 90
        0
280
     0
281
     1
  0
CLASS
  1
XRECORD
  2
AcDbXrecord
  3
AutoCAD 2000
 90
        0
280
     0
281
     0
  0
CLASS
  1
LONG_TRANSACTION
  2
AcDbLongTransaction
  3
AutoCAD 2000
 90
        0
280
     0
281
     0
  0
CLASS
  1
LWPOLYLINE
  2
AcDbPolyline
  3
AutoCAD 2000
 90
        0
280
     0
281
     1
  0
CLASS
  1
HATCH
  2
AcDbHatch
  3
AutoCAD 2000
 90
        0
280
     0
281
     1
  0
CLASS
  1
XRECORD
  2
AcDbXrecord
  3
AutoCAD 2000
 90
        0
280
     0
281
     0
  0
CLASS
  1
LONG_TRANSACTION
  2
AcDbLongTransaction
  3
AutoCAD 2000
 90
        0
280
     0
281
     0
  0
CLASS
  1
LWPOLYLINE
  2
AcDbPolyline
  3
AutoCAD 2000
 90
        0
280
     0
281
     1
  0
CLASS
  1
HATCH
  2
AcDbHatch
  3
AutoCAD 2000
 90
        0
280
     0
281
     1
  0
CLASS
  1
XRECORD
  2
AcDbXrecord
  3
AutoCAD 2000
 90
        0
280
     0
281
     0
  0
CLASS
  1
LONG_TRANSACTION
  2
AcDbLongTransaction
  3
AutoCAD 2000
 90
        0
280
     0
281
     0
  0
CLASS
  1
LWPOLYLINE
  2
AcDbPolyline
  3
AutoCAD 2000
 90
        0
280
     0
281
     1
  0
CLASS
  1
HATCH
  2
AcDbHatch
  3
AutoCAD 2000
 90
        0
280
     0
281
     1
  0
CLASS
  1
XRECORD
  2
AcDbXrecord
  3
AutoCAD 2000
 90
        0
280
     0
281
     0
  0
CLASS
  1
LONG_TRANSACTION
  2
AcDbLongTransaction
  3
AutoCAD 2000
 90
        0
280
     0
281
     0
  0
CLASS
  1
LWPOLYLINE
  2
AcDbPolyline
  3
AutoCAD 2000
 90
        0
280
     0
281
     1
  0
CLASS
  1
HATCH
  2
AcDbHatch
  3
AutoCAD 2000
 90
        0
280
     0
281
     1
  0
CLASS
  1
XRECORD
  2
AcDbXrecord
  3
AutoCAD 2000
 90
        0
280
     0
281
     0
  0
CLASS
  1
LONG_TRANSACTION
  2
AcDbLongTransaction
  3
AutoCAD 2000
 90
        0
280
     0
281
     0
  0
CLASS
  1
LWPOLYLINE
  2
AcDbPolyline
  3
AutoCAD 2000
 90
        0
280
     0
281
     1
  0
CLASS
  1
HATCH
  2
AcDbHatch
  3
AutoCAD 2000
 90
        0
280
     0
281
     1
  0
CLASS
  1
XRECORD
  2
AcDbXrecord
  3
AutoCAD 2000
 90
        0
280
     0
281
     0
  0
CLASS
  1
LONG_TRANSACTION
  2
AcDbLongTransaction
  3
AutoCAD 2000
 90
        0
280
     0
281
     0
  0
CLASS
  1
LWPOLYLINE
  2
AcDbPolyline
  3
AutoCAD 2000
 90
        0
280
     0
281
     1
  0
CLASS
  1
HATCH
  2
AcDbHatch
  3
AutoCAD 2000
 90
        0
280
     0
281
     1
  0
CLASS
  1
XRECORD
  2
AcDbXrecord
  3
AutoCAD 2000
 90
        0
280
     0
281
     0
  0
CLASS
  1
LONG_TRANSACTION
  2
AcDbLongTransaction
  3
AutoCAD 2000
 90
        0
280
     0
281
     0
  0
CLASS
  1
LWPOLYLINE
  2
AcDbPolyline
  3
AutoCAD 2000
 90
        0
280
     0
281
     1
  0
CLASS
  1
HATCH
  2
AcDbHatch
  3
AutoCAD 2000
 90
        0
280
     0
281
     1
  0
CLASS
  1
XRECORD
  2
AcDbXrecord
  3
AutoCAD 2000
 90
        0
280
     0
281
     0
  0
CLASS
  1
LONG_TRANSACTION
  2
AcDbLongTransaction
  3
AutoCAD 2000
 90
        0
280
     0
281
     0
  0
CLASS
  1
LWPOLYLINE
  2
AcDbPolyline
  3
AutoCAD 2000
 90
        0
280
     0
281
     1
  0
CLASS
  1
HATCH
  2
AcDbHatch
  3
AutoCAD 2000
 90
        0
280
     0
281
     1
  0
CLASS
  1
XRECORD
  2
AcDbXrecord
  3
AutoCAD 2000
 90
        0
280
     0
281
     0
  0
CLASS
  1
DICTIONARYVAR
  2
AcDbDictionaryVar
  3
AutoCAD 2000
 90
        0
280
     0
281
     0
  0
CLASS
  1
LONG_TRANSACTION
  2
AcDbLongTransaction
  3
AutoCAD 2000
 90
        0
280
     0
281
     0
  0
CLASS
  1
LWPOLYLINE
  2
AcDbPolyline
  3
AutoCAD 2000
 90
        0
280
     0
281
     1
  0
CLASS
  1
HATCH
  2
AcDbHatch
  3
AutoCAD 2000
 90
        0
280
     0
281
     1
  0
CLASS
  1
XRECORD
  2
AcDbXrecord
  3
AutoCAD 2000
 90
        0
280
     0
281
     0
  0
CLASS
  1
LONG_TRANSACTION
  2
AcDbLongTransaction
  3
AutoCAD 2000
 90
        0
280
     0
281
     0
  0
CLASS
  1
LWPOLYLINE
  2
AcDbPolyline
  3
AutoCAD 2000
 90
        0
280
     0
281
     1
  0
CLASS
  1
HATCH
  2
AcDbHatch
  3
AutoCAD 2000
 90
        0
280
     0
281
     1
  0
CLASS
  1
XRECORD
  2
AcDbXrecord
  3
AutoCAD 2000
 90
        0
280
     0
281
     0
  0
CLASS
  1
LONG_TRANSACTION
  2
AcDbLongTransaction
  3
AutoCAD 2000
 90
        0
280
     0
281
     0
  0
CLASS
  1
LWPOLYLINE
  2
AcDbPolyline
  3
AutoCAD 2000
 90
        0
280
     0
281
     1
  0
CLASS
  1
HATCH
  2
AcDbHatch
  3
AutoCAD 2000
 90
        0
280
     0
281
     1
  0
CLASS
  1
XRECORD
  2
AcDbXrecord
  3
AutoCAD 2000
 90
        0
280
     0
281
     0
  0
ENDSEC
  0
SECTION
  2
TABLES
  0
TABLE
  2
VPORT
  5
8
330
0
100
AcDbSymbolTable
 70
     2
  0
VPORT
  5
8997
330
8
100
AcDbSymbolTableRecord
100
AcDbViewportTableRecord
  2
*ACTIVE
 70
     0
 10
0.0
 20
0.0
 11
1.0
 21
1.0
 12
151.3260143606758
 22
-103.5120928370134
 13
0.0
 23
0.0
 14
1.0
 24
1.0
 15
10.0
 25
10.0
 16
0.0
 26
0.0
 36
1.0
 17
0.0
 27
0.0
 37
0.0
 40
715.5337073175399
 41
1.672222222222222
 42
50.0
 43
0.0
 44
0.0
 50
0.0
 51
0.0
 71
     0
 72
   100
 73
     1
 74
     1
 75
     1
 76
     0
 77
     0
 78
     0
  0
ENDTAB
  0
TABLE
  2
LTYPE
  5
5
330
0
100
AcDbSymbolTable
 70
     4
  0
LTYPE
  5
13
330
5
100
AcDbSymbolTableRecord
100
AcDbLinetypeTableRecord
  2
BYBLOCK
 70
     0
  3

 72
    65
 73
     0
 40
0.0
  0
LTYPE
  5
14
330
5
100
AcDbSymbolTableRecord
100
AcDbLinetypeTableRecord
  2
BYLAYER
 70
     0
  3

 72
    65
 73
     0
 40
0.0
  0
LTYPE
  5
15
330
5
100
AcDbSymbolTableRecord
100
AcDbLinetypeTableRecord
  2
CONTINUOUS
 70
     0
  3
Solid line
 72
    65
 73
     0
 40
0.0
  0
LTYPE
  5
22
330
5
100
AcDbSymbolTableRecord
100
AcDbLinetypeTableRecord
  2
CONTINOUS
 70
     0
  3
Solid line
 72
    65
 73
     0
 40
0.0
  0
LTYPE
  5
24
330
5
100
AcDbSymbolTableRecord
100
AcDbLinetypeTableRecord
  2
DASHDOT
 70
     0
  3
__ . __ . __ . __ . __ . __ . __ . __ . __ . __
 72
    65
 73
     4
 40
1.0
 49
0.5
 74
     0
 49
-0.25
 74
     0
 49
0.0
 74
     0
 49
-0.25
 74
     0
  0
LTYPE
  5
392A
330
5
100
AcDbSymbolTableRecord
100
AcDbLinetypeTableRecord
  2
DIVIDE
 70
     0
  3
Divide ____ . . ____ . . ____ . . ____ . . ____
 72
    65
 73
     6
 40
1.25
 49
0.5
 74
     0
 49
-0.25
 74
     0
 49
0.0
 74
     0
 49
-0.25
 74
     0
 49
0.0
 74
     0
 49
-0.25
 74
     0
  0
ENDTAB
  0
TABLE
  2
LAYER
  5
2
330
0
100
AcDbSymbolTable
 70
    14
  0
LAYER
  5
10
330
2
100
AcDbSymbolTableRecord
100
AcDbLayerTableRecord
  2
0
 70
     0
 62
     7
  6
CONTINOUS
  0
LAYER
  5
2F
330
2
100
AcDbSymbolTableRecord
100
AcDbLayerTableRecord
  2
10
 70
     0
 62
     4
  6
CONTINOUS
  0
LAYER
  5
31
330
2
100
AcDbSymbolTableRecord
100
AcDbLayerTableRecord
  2
12
 70
     0
 62
     3
  6
CONTINOUS
  0
LAYER
  5
35
330
2
100
AcDbSymbolTableRecord
100
AcDbLayerTableRecord
  2
16
 70
     0
 62
     6
  6
DASHDOT
  0
LAYER
  5
36
330
2
100
AcDbSymbolTableRecord
100
AcDbLayerTableRecord
  2
17
 70
     0
 62
     2
  6
DASHDOT
  0
LAYER
  5
38
330
2
100
AcDbSymbolTableRecord
100
AcDbLayerTableRecord
  2
19
 70
     0
 62
     7
  6
CONTINOUS
  0
LAYER
  5
3C
330
2
100
AcDbSymbolTableRecord
100
AcDbLayerTableRecord
  2
11
 70
     0
 62
     1
  6
CONTINOUS
  0
LAYER
  5
3D
330
2
100
AcDbSymbolTableRecord
100
AcDbLayerTableRecord
  2
24
 70
     0
 62
     2
  6
CONTINOUS
  0
LAYER
  5
3A2
330
2
100
AcDbSymbolTableRecord
100
AcDbLayerTableRecord
  2
30
 70
     0
 62
     9
  6
CONTINUOUS
  0
LAYER
  5
3A4
330
2
100
AcDbSymbolTableRecord
100
AcDbLayerTableRecord
  2
DEFPOINTS
 70
     0
 62
     7
  6
CONTINUOUS
  0
LAYER
  5
4C43
330
2
100
AcDbSymbolTableRecord
100
AcDbLayerTableRecord
  2
18
 70
     0
 62
     5
  6
DIVIDE
  0
LAYER
  5
5E73
330
2
100
AcDbSymbolTableRecord
100
AcDbLayerTableRecord
  2
1
 70
     0
 62
     7
  6
CONTINUOUS
  0
LAYER
  5
5E74
330
2
100
AcDbSymbolTableRecord
100
AcDbLayerTableRecord
  2
TOP
 70
     0
 62
     7
  6
CONTINUOUS
  0
LAYER
  5
75B4
330
2
100
AcDbSymbolTableRecord
100
AcDbLayerTableRecord
  2
5
 70
     0
 62
     7
  6
CONTINUOUS
  0
ENDTAB
  0
TABLE
  2
STYLE
  5
3
330
0
100
AcDbSymbolTable
 70
     3
  0
STYLE
  5
11
330
3
100
AcDbSymbolTableRecord
100
AcDbTextStyleTableRecord
  2
STANDARD
 70
     0
 40
0.0
 41
1.0
 50
0.0
 71
     0
 42
2.0
  3
txt.shx
  4
bigfont.shx
  0
STYLE
  5
42
330
3
100
AcDbSymbolTableRecord
100
AcDbTextStyleTableRecord
  2
STANDARD1
 70
     0
 40
0.0
 41
1.0
 50
0.0
 71
     0
 42
5.0
  3
MONOTXT
  4
BIGFONT
  0
STYLE
  5
5E75
330
3
100
AcDbSymbolTableRecord
100
AcDbTextStyleTableRecord
  2
UGMTXT
 70
     0
 40
0.0
 41
1.0
 50
0.0
 71
     0
 42
0.2
  3
ugmtxt
  4
bigfont
  0
ENDTAB
  0
TABLE
  2
VIEW
  5
6
330
0
100
AcDbSymbolTable
 70
     3
  0
VIEW
  5
230C
330
6
100
AcDbSymbolTableRecord
100
AcDbViewTableRecord
  2
OLE1
 70
     0
 40
148.9124878027714
 10
429.4976280407222
 20
2.560626997828478
 41
103.1458057716444
 11
0.0
 21
0.0
 31
1.0
 12
0.0
 22
0.0
 32
0.0
 42
50.0
 43
0.0
 44
0.0
 50
0.0
 71
     0
  0
VIEW
  5
230E
330
6
100
AcDbSymbolTableRecord
100
AcDbViewTableRecord
  2
OLE2
 70
     0
 40
170.7786920545775
 10
322.664969958371
 20
-5.978304054290276
 41
102.4672152327465
 11
0.0
 21
0.0
 31
1.0
 12
0.0
 22
0.0
 32
0.0
 42
50.0
 43
0.0
 44
0.0
 50
0.0
 71
     0
  0
VIEW
  5
23AA
330
6
100
AcDbSymbolTableRecord
100
AcDbViewTableRecord
  2
OLE3
 70
     0
 40
591.7897393182231
 10
84.79698158148218
 20
-46.09336010803995
 41
388.7920961799953
 11
0.0
 21
0.0
 31
1.0
 12
0.0
 22
0.0
 32
0.0
 42
50.0
 43
0.0
 44
0.0
 50
0.0
 71
     0
  0
ENDTAB
  0
TABLE
  2
UCS
  5
7
330
0
100
AcDbSymbolTable
 70
     0
  0
ENDTAB
  0
TABLE
  2
APPID
  5
9
330
0
100
AcDbSymbolTable
 70
     2
  0
APPID
  5
12
330
9
100
AcDbSymbolTableRecord
100
AcDbRegAppTableRecord
  2
ACAD
 70
     0
  0
APPID
  5
ECD
330
9
100
AcDbSymbolTableRecord
100
AcDbRegAppTableRecord
  2
CONTENTBLOCKICON
 70
     0
  0
ENDTAB
  0
TABLE
  2
DIMSTYLE
  5
A
330
0
100
AcDbSymbolTable
 70
     1
  0
DIMSTYLE
105
175
102
{ACAD_REACTORS
330
75CC
330
75DC
330
7516
330
7515
330
7831
330
7830
330
77D3
330
7F2C
330
7F2B
330
7E94
330
7E93
330
7E92
330
7E91
330
7E90
330
7E95
330
7F7C
330
7E9D
330
84DF
330
84DE
330
84A8
330
84A7
102
}
330
A
100
AcDbSymbolTableRecord
100
AcDbDimStyleTableRecord
  2
STANDARD
 70
     0
  3

  4

  5
OPEN
  6

  7

 40
1.0
 41
2.0
 42
1.0
 43
0.5
 44
0.5
 45
0.0
 46
0.0
 47
0.0
 48
0.0
140
4.0
141
0.09
142
0.0
143
25.4
144
1.0
145
0.0
146
1.0
147
1.0
 71
     0
 72
     0
 73
     0
 74
     0
 75
     0
 76
     0
 77
     3
 78
    12
170
     0
171
     2
172
     0
173
     0
174
     0
175
     0
176
     0
177
     0
178
     0
270
     2
271
     1
272
     1
273
     2
274
     2
340
11
275
     0
280
     0
281
     0
282
     0
283
     1
284
     0
285
     0
286
     0
287
     3
288
     0
  0
ENDTAB
  0
TABLE
  2
BLOCK_RECORD
  5
1
330
0
100
AcDbSymbolTable
 70
    38
  0
BLOCK_RECORD
  5
1E
102
{ACAD_XDICTIONARY
360
178
102
}
330
1
100
AcDbSymbolTableRecord
100
AcDbBlockTableRecord
  2
*MODEL_SPACE
  0
BLOCK_RECORD
  5
1A
102
{ACAD_XDICTIONARY
360
17A
102
}
330
1
100
AcDbSymbolTableRecord
100
AcDbBlockTableRecord
  2
*PAPER_SPACE
  0
BLOCK_RECORD
  5
3B2
330
1
100
AcDbSymbolTableRecord
100
AcDbBlockTableRecord
  2
_OPEN
  0
BLOCK_RECORD
  5
7440
330
1
100
AcDbSymbolTableRecord
100
AcDbBlockTableRecord
  2
*U1
  0
BLOCK_RECORD
  5
7444
330
1
100
AcDbSymbolTableRecord
100
AcDbBlockTableRecord
  2
*U2
  0
BLOCK_RECORD
  5
744D
330
1
100
AcDbSymbolTableRecord
100
AcDbBlockTableRecord
  2
*U3
  0
BLOCK_RECORD
  5
7456
330
1
100
AcDbSymbolTableRecord
100
AcDbBlockTableRecord
  2
*U4
  0
BLOCK_RECORD
  5
745D
330
1
100
AcDbSymbolTableRecord
100
AcDbBlockTableRecord
  2
*U5
  0
BLOCK_RECORD
  5
754E
330
1
100
AcDbSymbolTableRecord
100
AcDbBlockTableRecord
  2
*D6
  0
BLOCK_RECORD
  5
755B
330
1
100
AcDbSymbolTableRecord
100
AcDbBlockTableRecord
  2
*D7
  0
BLOCK_RECORD
  5
75DF
330
1
100
AcDbSymbolTableRecord
100
AcDbBlockTableRecord
  2
*D8
  0
BLOCK_RECORD
  5
75EB
330
1
100
AcDbSymbolTableRecord
100
AcDbBlockTableRecord
  2
*D9
  0
BLOCK_RECORD
  5
790C
330
1
100
AcDbSymbolTableRecord
100
AcDbBlockTableRecord
  2
*D10
  0
BLOCK_RECORD
  5
7918
330
1
100
AcDbSymbolTableRecord
100
AcDbBlockTableRecord
  2
*D11
  0
BLOCK_RECORD
  5
7924
330
1
100
AcDbSymbolTableRecord
100
AcDbBlockTableRecord
  2
*D12
  0
BLOCK_RECORD
  5
7930
330
1
100
AcDbSymbolTableRecord
100
AcDbBlockTableRecord
  2
*D13
  0
BLOCK_RECORD
  5
803E
330
1
100
AcDbSymbolTableRecord
100
AcDbBlockTableRecord
  2
*D14
  0
BLOCK_RECORD
  5
804A
330
1
100
AcDbSymbolTableRecord
100
AcDbBlockTableRecord
  2
*D15
  0
BLOCK_RECORD
  5
8056
330
1
100
AcDbSymbolTableRecord
100
AcDbBlockTableRecord
  2
*D16
  0
BLOCK_RECORD
  5
8062
330
1
100
AcDbSymbolTableRecord
100
AcDbBlockTableRecord
  2
*D17
  0
BLOCK_RECORD
  5
806E
330
1
100
AcDbSymbolTableRecord
100
AcDbBlockTableRecord
  2
*D18
  0
BLOCK_RECORD
  5
807A
330
1
100
AcDbSymbolTableRecord
100
AcDbBlockTableRecord
  2
*D19
  0
BLOCK_RECORD
  5
8087
330
1
100
AcDbSymbolTableRecord
100
AcDbBlockTableRecord
  2
*D20
  0
BLOCK_RECORD
  5
8093
330
1
100
AcDbSymbolTableRecord
100
AcDbBlockTableRecord
  2
*D21
  0
BLOCK_RECORD
  5
809F
330
1
100
AcDbSymbolTableRecord
100
AcDbBlockTableRecord
  2
*D22
  0
BLOCK_RECORD
  5
80AB
330
1
100
AcDbSymbolTableRecord
100
AcDbBlockTableRecord
  2
*D23
  0
BLOCK_RECORD
  5
8112
330
1
100
AcDbSymbolTableRecord
100
AcDbBlockTableRecord
  2
*U24
  0
BLOCK_RECORD
  5
8324
330
1
100
AcDbSymbolTableRecord
100
AcDbBlockTableRecord
  2
*D25
  0
BLOCK_RECORD
  5
8330
330
1
100
AcDbSymbolTableRecord
100
AcDbBlockTableRecord
  2
*D26
  0
BLOCK_RECORD
  5
833C
330
1
100
AcDbSymbolTableRecord
100
AcDbBlockTableRecord
  2
*D27
  0
BLOCK_RECORD
  5
8348
330
1
100
AcDbSymbolTableRecord
100
AcDbBlockTableRecord
  2
*D28
  0
BLOCK_RECORD
  5
8354
330
1
100
AcDbSymbolTableRecord
100
AcDbBlockTableRecord
  2
*D29
  0
BLOCK_RECORD
  5
8360
330
1
100
AcDbSymbolTableRecord
100
AcDbBlockTableRecord
  2
*D30
  0
BLOCK_RECORD
  5
836C
330
1
100
AcDbSymbolTableRecord
100
AcDbBlockTableRecord
  2
*D31
  0
BLOCK_RECORD
  5
83B7
330
1
100
AcDbSymbolTableRecord
100
AcDbBlockTableRecord
  2
*U32
  0
BLOCK_RECORD
  5
83D6
330
1
100
AcDbSymbolTableRecord
100
AcDbBlockTableRecord
  2
*U33
  0
BLOCK_RECORD
  5
8539
330
1
100
AcDbSymbolTableRecord
100
AcDbBlockTableRecord
  2
*D34
  0
BLOCK_RECORD
  5
8545
330
1
100
AcDbSymbolTableRecord
100
AcDbBlockTableRecord
  2
*D35
  0
BLOCK_RECORD
  5
8551
330
1
100
AcDbSymbolTableRecord
100
AcDbBlockTableRecord
  2
*D36
  0
BLOCK_RECORD
  5
855D
330
1
100
AcDbSymbolTableRecord
100
AcDbBlockTableRecord
  2
*D37
  0
ENDTAB
  0
ENDSEC
  0
SECTION
  2
BLOCKS
  0
BLOCK
  5
1F
330
1E
100
AcDbEntity
  8
0
100
AcDbBlockBegin
  2
*MODEL_SPACE
 70
     0
 10
0.0
 20
0.0
 30
0.0
  3
*MODEL_SPACE
  1

  0
ENDBLK
  5
20
330
1E
100
AcDbEntity
  8
0
100
AcDbBlockEnd
  0
BLOCK
  5
1B
330
1A
100
AcDbEntity
 67
     1
  8
0
100
AcDbBlockBegin
  2
*PAPER_SPACE
 70
     0
 10
0.0
 20
0.0
 30
0.0
  3
*PAPER_SPACE
  1

  0
ENDBLK
  5
1C
330
1A
100
AcDbEntity
 67
     1
  8
0
100
AcDbBlockEnd
  0
BLOCK
  5
3B6
330
3B2
100
AcDbEntity
  8
0
100
AcDbBlockBegin
  2
_OPEN
 70
     0
 10
0.0
 20
0.0
 30
0.0
  3
_OPEN
  1

  0
LINE
  5
3B3
330
3B2
100
AcDbEntity
  8
30
  6
CONTINUOUS
 62
     0
100
AcDbLine
 10
-1.0
 20
0.1666666666666666
 30
0.0
 11
0.0
 21
0.0
 31
0.0
  0
LINE
  5
3B4
330
3B2
100
AcDbEntity
  8
30
  6
CONTINUOUS
 62
     0
100
AcDbLine
 10
-1.0
 20
-0.1666666666666666
 30
0.0
 11
0.0
 21
0.0
 31
0.0
  0
LINE
  5
3B5
330
3B2
100
AcDbEntity
  8
30
  6
CONTINUOUS
 62
     0
100
AcDbLine
 10
0.0
 20
0.0
 30
0.0
 11
-1.0
 21
0.0
 31
0.0
  0
ENDBLK
  5
3B7
330
3B2
100
AcDbEntity
  8
0
100
AcDbBlockEnd
  0
BLOCK
  5
7442
330
7440
100
AcDbEntity
  8
TOP
  6
CONTINUOUS
 62
     4
100
AcDbBlockBegin
  2
*U1
 70
     1
 10
0.0
 20
0.0
 30
0.0
  3
*U1
  1

  0
TEXT
  5
7441
330
7440
100
AcDbEntity
  8
TOP
  6
BYBLOCK
 62
     0
100
AcDbText
 10
266.0
 20
291.0294437291301
 30
0.0
 40
2.500000003799998
  1
15.5 (max.)
 50
89.99999999999404
 41
0.8081054687499968
  7
UGMTXT
100
AcDbText
  0
ENDBLK
  5
7443
330
7440
100
AcDbEntity
  8
0
100
AcDbBlockEnd
  0
BLOCK
  5
744B
330
7444
100
AcDbEntity
  8
TOP
  6
CONTINUOUS
 62
     4
100
AcDbBlockBegin
  2
*U2
 70
     1
 10
0.0
 20
0.0
 30
0.0
  3
*U2
  1

  0
LINE
  5
7445
330
7444
100
AcDbEntity
  8
1
  6
BYBLOCK
 62
     0
100
AcDbLine
 10
233.5811502601933
 20
295.7294437159303
 30
0.0
 11
262.2500000084999
 21
295.7294437159303
 31
0.0
  0
LINE
  5
7446
330
7444
100
AcDbEntity
  8
1
  6
BYBLOCK
 62
     0
100
AcDbLine
 10
255.5411502601935
 20
305.0294437159302
 30
0.0
 11
262.2500000084999
 21
305.0294437159302
 31
0.0
  0
LINE
  5
7447
330
7444
100
AcDbEntity
  8
1
  6
BYBLOCK
 62
     0
100
AcDbLine
 10
261.2500000019
 20
295.7294437159303
 30
0.0
 11
261.2500000019
 21
305.0294437159302
 31
0.0
  0
SOLID
  5
7448
330
7444
100
AcDbEntity
  8
1
  6
BYBLOCK
 62
     0
100
AcDbTrace
 10
261.2500000019
 20
295.7294437159303
 30
0.0
 11
260.9166666663664
 21
297.7294437291303
 31
0.0
 12
261.5833333374331
 22
297.7294437291303
 32
0.0
 13
261.5833333374331
 23
297.7294437291303
 33
0.0
  0
SOLID
  5
7449
330
7444
100
AcDbEntity
  8
1
  6
BYBLOCK
 62
     0
100
AcDbTrace
 10
261.2500000019
 20
305.0294437159302
 30
0.0
 11
261.5833333374331
 21
303.0294437027301
 31
0.0
 12
260.9166666663664
 22
303.0294437027301
 32
0.0
 13
260.9166666663664
 23
303.0294437027301
 33
0.0
  0
TEXT
  5
744A
330
7444
100
AcDbEntity
  8
TOP
  6
BYBLOCK
 62
     0
100
AcDbText
 10
260.0
 20
299.5135582979475
 30
0.0
 40
2.500000003799998
  1
 
 50
89.99999999999404
 41
1.189062499999995
  7
UGMTXT
100
AcDbText
  0
ENDBLK
  5
744C
330
7444
100
AcDbEntity
  8
0
100
AcDbBlockEnd
  0
BLOCK
  5
7454
330
744D
100
AcDbEntity
  8
TOP
  6
CONTINUOUS
 62
     4
100
AcDbBlockBegin
  2
*U3
 70
     1
 10
0.0
 20
0.0
 30
0.0
  3
*U3
  1

  0
LINE
  5
744E
330
744D
100
AcDbEntity
  8
1
  6
BYBLOCK
 62
     0
100
AcDbLine
 10
210.1411485937496
 20
283.7986239687466
 30
0.0
 11
210.1411485937496
 21
267.7499999981
 31
0.0
  0
LINE
  5
744F
330
744D
100
AcDbEntity
  8
1
  6
BYBLOCK
 62
     0
100
AcDbLine
 10
224.5411502535934
 20
289.0294437093301
 30
0.0
 11
224.5411502535934
 21
267.7499999981
 31
0.0
  0
LINE
  5
7450
330
744D
100
AcDbEntity
  8
1
  6
BYBLOCK
 62
     0
100
AcDbLine
 10
210.1411485937496
 20
268.7499999981
 30
0.0
 11
224.5411502535934
 21
268.7499999981
 31
0.0
  0
SOLID
  5
7451
330
744D
100
AcDbEntity
  8
1
  6
BYBLOCK
 62
     0
100
AcDbTrace
 10
210.1411485937496
 20
268.7499999981
 30
0.0
 11
212.1411486069495
 21
269.0833333336333
 31
0.0
 12
212.1411486069495
 22
268.4166666625666
 32
0.0
 13
212.1411486069495
 23
268.4166666625666
 33
0.0
  0
SOLID
  5
7452
330
744D
100
AcDbEntity
  8
1
  6
BYBLOCK
 62
     0
100
AcDbTrace
 10
224.5411502535934
 20
268.7499999981
 30
0.0
 11
222.5411502403934
 21
268.4166666625666
 31
0.0
 12
222.5411502403934
 22
269.0833333336333
 32
0.0
 13
222.5411502403934
 23
269.0833333336333
 33
0.0
  0
TEXT
  5
7453
330
744D
100
AcDbEntity
  8
TOP
  6
BYBLOCK
 62
     0
100
AcDbText
 10
215.4843785875159
 20
270.0
 30
0.0
 40
2.500000003799998
  1
24
 41
0.8912499999999965
  7
UGMTXT
100
AcDbText
  0
ENDBLK
  5
7455
330
744D
100
AcDbEntity
  8
0
100
AcDbBlockEnd
  0
BLOCK
  5
745B
330
7456
100
AcDbEntity
  8
TOP
  6
CONTINUOUS
 62
     3
100
AcDbBlockBegin
  2
*U4
 70
     1
 10
0.0
 20
0.0
 30
0.0
  3
*U4
  1

  0
LINE
  5
7457
330
7456
100
AcDbEntity
  8
1
  6
BYBLOCK
 62
     0
100
AcDbLine
 10
254.7855019450172
 20
268.7148869848059
 30
0.0
 11
240.7855019450172
 21
268.7148869848059
 31
0.0
  0
LINE
  5
7458
330
7456
100
AcDbEntity
  8
1
  6
BYBLOCK
 62
     0
100
AcDbLine
 10
230.5411502535934
 20
291.4094437159302
 30
0.0
 11
240.7855019450172
 21
268.7148869848059
 31
0.0
  0
SOLID
  5
7459
330
7456
100
AcDbEntity
  8
1
  6
BYBLOCK
 62
     0
100
AcDbTrace
 10
230.5411502535934
 20
291.4094437159302
 30
0.0
 11
231.6678175741986
 21
289.723699988652
 31
0.0
 12
231.0601889426162
 22
289.4494156537138
 32
0.0
 13
231.0601889426162
 23
289.4494156537138
 33
0.0
  0
TEXT
  5
745A
330
7456
100
AcDbEntity
  8
TOP
  6
BYBLOCK
 62
     0
100
AcDbText
 10
254.7855019450172
 20
267.4648869848059
 30
0.0
 40
2.5
  1
 
 41
1.189062500000005
  7
UGMTXT
100
AcDbText
  0
ENDBLK
  5
745C
330
7456
100
AcDbEntity
  8
0
100
AcDbBlockEnd
  0
BLOCK
  5
7462
330
745D
100
AcDbEntity
  8
TOP
  6
CONTINUOUS
 62
     3
100
AcDbBlockBegin
  2
*U5
 70
     1
 10
0.0
 20
0.0
 30
0.0
  3
*U5
  1

  0
LINE
  5
745E
330
745D
100
AcDbEntity
  8
1
  6
BYBLOCK
 62
     0
100
AcDbLine
 10
299.0919828141811
 20
278.9261624279384
 30
0.0
 11
252.0919828141811
 21
278.9261624279384
 31
0.0
  0
LINE
  5
745F
330
745D
100
AcDbEntity
  8
1
  6
BYBLOCK
 62
     0
100
AcDbLine
 10
245.3011502535936
 20
286.4294437159301
 30
0.0
 11
252.0919828141811
 21
278.9261624279384
 31
0.0
  0
SOLID
  5
7460
330
745D
100
AcDbEntity
  8
1
  6
BYBLOCK
 62
     0
100
AcDbTrace
 10
245.3011502535936
 20
286.4294437159301
 30
0.0
 11
246.8903538489449
 21
285.1702602114716
 31
0.0
 12
246.396067112615
 22
284.7229068024097
 32
0.0
 13
246.396067112615
 23
284.7229068024097
 33
0.0
  0
TEXT
  5
7461
330
745D
100
AcDbEntity
  8
TOP
  6
BYBLOCK
 62
     0
100
AcDbText
 10
299.0919828141811
 20
277.6761624279385
 30
0.0
 40
2.5
  1
 
 41
1.189062499999988
  7
UGMTXT
100
AcDbText
  0
ENDBLK
  5
7463
330
745D
100
AcDbEntity
  8
0
100
AcDbBlockEnd
  0
BLOCK
  5
7559
330
754E
100
AcDbEntity
  8
0
100
AcDbBlockBegin
  2
*D6
 70
     1
 10
0.0
 20
0.0
 30
0.0
  3
*D6
  1

  0
LINE
  5
898D
330
754E
100
AcDbEntity
  8
30
 62
     0
100
AcDbLine
 10
195.5000066894235
 20
-249.3055065238225
 30
0.0
 11
195.5000066894235
 21
-234.132408774628
 31
0.0
  0
LINE
  5
898E
330
754E
100
AcDbEntity
  8
30
 62
     0
100
AcDbLine
 10
200.500006113089
 20
-262.4999992507651
 30
0.0
 11
200.500006113089
 21
-234.132408774628
 31
0.0
  0
LINE
  5
898F
330
754E
100
AcDbEntity
  8
30
 62
     0
100
AcDbLine
 10
193.5000066894236
 20
-234.632408774628
 30
0.0
 11
191.5000066894235
 21
-234.632408774628
 31
0.0
  0
LINE
  5
8990
330
754E
100
AcDbEntity
  8
30
 62
     0
100
AcDbLine
 10
202.500006113089
 20
-234.632408774628
 30
0.0
 11
204.500006113089
 21
-234.632408774628
 31
0.0
  0
INSERT
  5
8991
330
754E
100
AcDbEntity
  8
30
 62
     0
100
AcDbBlockReference
  2
_OPEN
 10
195.5000066894235
 20
-234.632408774628
 30
0.0
 41
2.0
 42
2.0
 43
2.0
  0
INSERT
  5
8992
330
754E
100
AcDbEntity
  8
30
 62
     0
100
AcDbBlockReference
  2
_OPEN
 10
200.500006113089
 20
-234.632408774628
 30
0.0
 41
2.0
 42
2.0
 43
2.0
 50
180.0
  0
MTEXT
  5
8993
330
754E
100
AcDbEntity
  8
30
 62
     0
100
AcDbMText
 10
198.0000064012563
 20
-231.632408774628
 30
0.0
 40
4.0
 41
0.0
 71
     5
 72
     1
  1
\A1;5
1001
ACAD
1000
MTEXTBEGIN
1070
    73
1070
     1
1070
    44
1040
1.0
1070
    74
1070
     0
1000
MTEXTEND
  0
POINT
  5
8994
330
754E
100
AcDbEntity
  8
DEFPOINTS
 62
     0
100
AcDbPoint
 10
195.5000066894235
 20
-250.3055065238225
 30
0.0
  0
POINT
  5
8995
330
754E
100
AcDbEntity
  8
DEFPOINTS
 62
     0
100
AcDbPoint
 10
200.500006113089
 20
-263.4999992507652
 30
0.0
  0
POINT
  5
8996
330
754E
100
AcDbEntity
  8
DEFPOINTS
 62
     0
100
AcDbPoint
 10
200.500006113089
 20
-234.632408774628
 30
0.0
  0
ENDBLK
  5
755A
330
754E
100
AcDbEntity
  8
0
100
AcDbBlockEnd
  0
BLOCK
  5
7565
330
755B
100
AcDbEntity
  8
0
100
AcDbBlockBegin
  2
*D7
 70
     1
 10
0.0
 20
0.0
 30
0.0
  3
*D7
  1

  0
LINE
  5
8984
330
755B
100
AcDbEntity
  8
30
 62
     0
100
AcDbLine
 10
195.5000066894235
 20
-249.3055065238225
 30
0.0
 11
195.5000066894235
 21
-234.132408774628
 31
0.0
  0
LINE
  5
8985
330
755B
100
AcDbEntity
  8
30
 62
     0
100
AcDbLine
 10
222.5000087011648
 20
-252.8333250487091
 30
0.0
 11
222.5000087011648
 21
-234.132408774628
 31
0.0
  0
LINE
  5
8986
330
755B
100
AcDbEntity
  8
30
 62
     0
100
AcDbLine
 10
197.5000066894235
 20
-234.632408774628
 30
0.0
 11
220.5000087011648
 21
-234.632408774628
 31
0.0
  0
INSERT
  5
8987
330
755B
100
AcDbEntity
  8
30
 62
     0
100
AcDbBlockReference
  2
_OPEN
 10
195.5000066894235
 20
-234.632408774628
 30
0.0
 41
2.0
 42
2.0
 43
2.0
 50
180.0
  0
INSERT
  5
8988
330
755B
100
AcDbEntity
  8
30
 62
     0
100
AcDbBlockReference
  2
_OPEN
 10
222.5000087011648
 20
-234.632408774628
 30
0.0
 41
2.0
 42
2.0
 43
2.0
  0
MTEXT
  5
8989
330
755B
100
AcDbEntity
  8
30
 62
     0
100
AcDbMText
 10
209.0000076952942
 20
-231.632408774628
 30
0.0
 40
4.0
 41
0.0
 71
     5
 72
     1
  1
\A1;27
1001
ACAD
1000
MTEXTBEGIN
1070
    73
1070
     1
1070
    44
1040
1.0
1070
    74
1070
     0
1000
MTEXTEND
  0
POINT
  5
898A
330
755B
100
AcDbEntity
  8
DEFPOINTS
 62
     0
100
AcDbPoint
 10
195.5000066894235
 20
-250.3055065238225
 30
0.0
  0
POINT
  5
898B
330
755B
100
AcDbEntity
  8
DEFPOINTS
 62
     0
100
AcDbPoint
 10
222.5000087011648
 20
-253.8333250487091
 30
0.0
  0
POINT
  5
898C
330
755B
100
AcDbEntity
  8
DEFPOINTS
 62
     0
100
AcDbPoint
 10
222.5000087011648
 20
-234.632408774628
 30
0.0
  0
ENDBLK
  5
7566
330
755B
100
AcDbEntity
  8
0
100
AcDbBlockEnd
  0
BLOCK
  5
75E9
330
75DF
100
AcDbEntity
  8
0
100
AcDbBlockBegin
  2
*D8
 70
     1
 10
0.0
 20
0.0
 30
0.0
  3
*D8
  1

  0
LINE
  5
8968
330
75DF
100
AcDbEntity
  8
30
 62
     0
100
AcDbLine
 10
340.0000000000001
 20
-293.0000000000001
 30
0.0
 11
340.0000000000001
 21
-303.5
 31
0.0
  0
LINE
  5
8969
330
75DF
100
AcDbEntity
  8
30
 62
     0
100
AcDbLine
 10
365.0
 20
-293.0000000000001
 30
0.0
 11
365.0
 21
-303.5
 31
0.0
  0
LINE
  5
896A
330
75DF
100
AcDbEntity
  8
30
 62
     0
100
AcDbLine
 10
342.0000000000001
 20
-303.0
 30
0.0
 11
363.0
 21
-303.0
 31
0.0
  0
INSERT
  5
896B
330
75DF
100
AcDbEntity
  8
30
 62
     0
100
AcDbBlockReference
  2
_OPEN
 10
340.0000000000001
 20
-303.0
 30
0.0
 41
2.0
 42
2.0
 43
2.0
 50
180.0
  0
INSERT
  5
896C
330
75DF
100
AcDbEntity
  8
30
 62
     0
100
AcDbBlockReference
  2
_OPEN
 10
365.0
 20
-303.0
 30
0.0
 41
2.0
 42
2.0
 43
2.0
  0
MTEXT
  5
896D
330
75DF
100
AcDbEntity
  8
30
 62
     0
100
AcDbMText
 10
353.0
 20
-300.0
 30
0.0
 40
4.0
 41
0.0
 71
     5
 72
     1
  1
\A1;22(max)
1001
ACAD
1000
MTEXTBEGIN
1070
    73
1070
     1
1070
    44
1040
1.0
1070
    74
1070
     0
1000
MTEXTEND
  0
POINT
  5
896E
330
75DF
100
AcDbEntity
  8
DEFPOINTS
 62
     0
100
AcDbPoint
 10
340.0000000000001
 20
-292.0000000000001
 30
0.0
  0
POINT
  5
896F
330
75DF
100
AcDbEntity
  8
DEFPOINTS
 62
     0
100
AcDbPoint
 10
365.0
 20
-292.0000000000001
 30
0.0
  0
POINT
  5
8970
330
75DF
100
AcDbEntity
  8
DEFPOINTS
 62
     0
100
AcDbPoint
 10
365.0
 20
-303.0
 30
0.0
  0
ENDBLK
  5
75EA
330
75DF
100
AcDbEntity
  8
0
100
AcDbBlockEnd
  0
BLOCK
  5
75F5
330
75EB
100
AcDbEntity
  8
0
100
AcDbBlockBegin
  2
*D9
 70
     1
 10
0.0
 20
0.0
 30
0.0
  3
*D9
  1

  0
LINE
  5
89BB
330
75EB
100
AcDbEntity
  8
30
 62
     0
100
AcDbLine
 10
366.0
 20
-292.0000000000001
 30
0.0
 11
375.8226076602539
 21
-292.0000000000001
 31
0.0
  0
LINE
  5
89BC
330
75EB
100
AcDbEntity
  8
30
 62
     0
100
AcDbLine
 10
356.0000000164997
 20
-282.0000000000001
 30
0.0
 11
375.8226076602539
 21
-282.0000000000001
 31
0.0
  0
LINE
  5
89BD
330
75EB
100
AcDbEntity
  8
30
 62
     0
100
AcDbLine
 10
375.322607660254
 20
-290.0000000000001
 30
0.0
 11
375.322607660254
 21
-284.0000000000001
 31
0.0
  0
MTEXT
  5
89BE
330
75EB
100
AcDbEntity
  8
30
 62
     0
100
AcDbMText
 10
381.0
 20
-288.0
 30
0.0
 40
4.0
 41
0.0
 71
     5
 72
     1
  1
\A1;15.5(max)
 11
0.0000000000000001
 21
1.0
 31
0.0
  0
INSERT
  5
89BF
330
75EB
100
AcDbEntity
  8
30
 62
     0
100
AcDbBlockReference
  2
_OPEN
 10
375.322607660254
 20
-292.0000000000001
 30
0.0
 41
2.0
 42
2.0
 43
2.0
 50
270.0
  0
INSERT
  5
89C0
330
75EB
100
AcDbEntity
  8
30
 62
     0
100
AcDbBlockReference
  2
_OPEN
 10
375.322607660254
 20
-282.0000000000001
 30
0.0
 41
2.0
 42
2.0
 43
2.0
 50
90.0
  0
POINT
  5
89C1
330
75EB
100
AcDbEntity
  8
DEFPOINTS
 62
     0
100
AcDbPoint
 10
365.0
 20
-292.0000000000001
 30
0.0
  0
POINT
  5
89C2
330
75EB
100
AcDbEntity
  8
DEFPOINTS
 62
     0
100
AcDbPoint
 10
355.0000000164997
 20
-282.0000000000001
 30
0.0
  0
POINT
  5
89C3
330
75EB
100
AcDbEntity
  8
DEFPOINTS
 62
     0
100
AcDbPoint
 10
375.322607660254
 20
-282.0000000000001
 30
0.0
  0
ENDBLK
  5
75F6
330
75EB
100
AcDbEntity
  8
0
100
AcDbBlockEnd
  0
BLOCK
  5
7916
330
790C
100
AcDbEntity
  8
0
100
AcDbBlockBegin
  2
*D10
 70
     1
 10
0.0
 20
0.0
 30
0.0
  3
*D10
  1

  0
LINE
  5
8700
330
790C
100
AcDbEntity
  8
30
 62
     0
100
AcDbLine
 10
-52.49999999999993
 20
-83.50000000000004
 30
0.0
 11
-52.49999999999993
 21
-129.6618080185514
 31
0.0
  0
LINE
  5
8701
330
790C
100
AcDbEntity
  8
30
 62
     0
100
AcDbLine
 10
87.50000000000005
 20
-83.50000000000004
 30
0.0
 11
87.50000000000005
 21
-129.6618080185514
 31
0.0
  0
LINE
  5
8702
330
790C
100
AcDbEntity
  8
30
 62
     0
100
AcDbLine
 10
-50.49999999999993
 20
-129.1618080185512
 30
0.0
 11
85.50000000000007
 21
-129.1618080185512
 31
0.0
  0
INSERT
  5
8703
330
790C
100
AcDbEntity
  8
30
 62
     0
100
AcDbBlockReference
  2
_OPEN
 10
-52.49999999999993
 20
-129.1618080185512
 30
0.0
 41
2.0
 42
2.0
 43
2.0
 50
180.0
  0
INSERT
  5
8704
330
790C
100
AcDbEntity
  8
30
 62
     0
100
AcDbBlockReference
  2
_OPEN
 10
87.50000000000005
 20
-129.1618080185512
 30
0.0
 41
2.0
 42
2.0
 43
2.0
  0
MTEXT
  5
8705
330
790C
100
AcDbEntity
  8
30
 62
     0
100
AcDbMText
 10
17.50000000000005
 20
-126.1618080185514
 30
0.0
 40
4.0
 41
0.0
 71
     5
 72
     1
  1
\A1;140
1001
ACAD
1000
MTEXTBEGIN
1070
    73
1070
     1
1070
    44
1040
1.0
1070
    74
1070
     0
1000
MTEXTEND
1000
MTEXTBEGIN
1070
    73
1070
     1
1070
    44
1040
1.0
1070
    74
1070
     0
1000
MTEXTEND
1000
MTEXTBEGIN
1070
    73
1070
     1
1070
    44
1040
1.0
1070
    74
1070
     0
1000
MTEXTEND
  0
POINT
  5
8706
330
790C
100
AcDbEntity
  8
DEFPOINTS
 62
     0
100
AcDbPoint
 10
-52.49999999999993
 20
-82.50000000000005
 30
0.0
  0
POINT
  5
8707
330
790C
100
AcDbEntity
  8
DEFPOINTS
 62
     0
100
AcDbPoint
 10
87.50000000000005
 20
-82.50000000000005
 30
0.0
  0
POINT
  5
8708
330
790C
100
AcDbEntity
  8
DEFPOINTS
 62
     0
100
AcDbPoint
 10
87.50000000000005
 20
-129.1618080185512
 30
0.0
  0
ENDBLK
  5
7917
330
790C
100
AcDbEntity
  8
0
100
AcDbBlockEnd
  0
BLOCK
  5
7922
330
7918
100
AcDbEntity
  8
0
100
AcDbBlockBegin
  2
*D11
 70
     1
 10
0.0
 20
0.0
 30
0.0
  3
*D11
  1

  0
LINE
  5
8902
330
7918
100
AcDbEntity
  8
30
 62
     0
100
AcDbLine
 10
-49.0
 20
23.5
 30
0.0
 11
-49.0
 21
35.71319198619852
 31
0.0
  0
LINE
  5
8903
330
7918
100
AcDbEntity
  8
30
 62
     0
100
AcDbLine
 10
49.00000000000005
 20
23.5
 30
0.0
 11
49.00000000000005
 21
35.71319198619852
 31
0.0
  0
LINE
  5
8904
330
7918
100
AcDbEntity
  8
30
 62
     0
100
AcDbLine
 10
-47.0
 20
35.21319198619852
 30
0.0
 11
47.00000000000005
 21
35.21319198619852
 31
0.0
  0
INSERT
  5
8905
330
7918
100
AcDbEntity
  8
30
 62
     0
100
AcDbBlockReference
  2
_OPEN
 10
-49.0
 20
35.21319198619852
 30
0.0
 41
2.0
 42
2.0
 43
2.0
 50
180.0
  0
INSERT
  5
8906
330
7918
100
AcDbEntity
  8
30
 62
     0
100
AcDbBlockReference
  2
_OPEN
 10
49.00000000000005
 20
35.21319198619852
 30
0.0
 41
2.0
 42
2.0
 43
2.0
  0
MTEXT
  5
8907
330
7918
100
AcDbEntity
  8
30
 62
     0
100
AcDbMText
 10
0.0000000000000251
 20
38.21319198619852
 30
0.0
 40
4.0
 41
0.0
 71
     5
 72
     1
  1
\A1;98
1001
ACAD
1000
MTEXTBEGIN
1070
    73
1070
     1
1070
    44
1040
1.0
1070
    74
1070
     0
1000
MTEXTEND
1000
MTEXTBEGIN
1070
    73
1070
     1
1070
    44
1040
1.0
1070
    74
1070
     0
1000
MTEXTEND
  0
POINT
  5
8908
330
7918
100
AcDbEntity
  8
DEFPOINTS
 62
     0
100
AcDbPoint
 10
-49.0
 20
22.5
 30
0.0
  0
POINT
  5
8909
330
7918
100
AcDbEntity
  8
DEFPOINTS
 62
     0
100
AcDbPoint
 10
49.00000000000005
 20
22.5
 30
0.0
  0
POINT
  5
890A
330
7918
100
AcDbEntity
  8
DEFPOINTS
 62
     0
100
AcDbPoint
 10
49.00000000000005
 20
35.21319198619852
 30
0.0
  0
ENDBLK
  5
7923
330
7918
100
AcDbEntity
  8
0
100
AcDbBlockEnd
  0
BLOCK
  5
792E
330
7924
100
AcDbEntity
  8
0
100
AcDbBlockBegin
  2
*D12
 70
     1
 10
0.0
 20
0.0
 30
0.0
  3
*D12
  1

  0
LINE
  5
86F7
330
7924
100
AcDbEntity
  8
30
 62
     0
100
AcDbLine
 10
87.99998493607615
 20
-89.99999601728335
 30
0.0
 11
125.8720095788776
 21
-89.99999601728339
 31
0.0
  0
LINE
  5
86F8
330
7924
100
AcDbEntity
  8
30
 62
     0
100
AcDbLine
 10
87.99998493607615
 20
90.00001234200977
 30
0.0
 11
125.8720095788776
 21
90.00001234200977
 31
0.0
  0
LINE
  5
86F9
330
7924
100
AcDbEntity
  8
30
 62
     0
100
AcDbLine
 10
125.3720095788777
 20
-87.99999601728336
 30
0.0
 11
125.3720095788777
 21
88.00001234200975
 31
0.0
  0
INSERT
  5
86FA
330
7924
100
AcDbEntity
  8
30
 62
     0
100
AcDbBlockReference
  2
_OPEN
 10
125.3720095788777
 20
-89.99999601728339
 30
0.0
 41
2.0
 42
2.0
 43
2.0
 50
270.0
  0
INSERT
  5
86FB
330
7924
100
AcDbEntity
  8
30
 62
     0
100
AcDbBlockReference
  2
_OPEN
 10
125.3720095788777
 20
90.00001234200977
 30
0.0
 41
2.0
 42
2.0
 43
2.0
 50
90.0
  0
MTEXT
  5
86FC
330
7924
100
AcDbEntity
  8
30
 62
     0
100
AcDbMText
 10
122.3720095788777
 20
0.0000081623632153
 30
0.0
 40
4.0
 41
0.0
 71
     5
 72
     1
  1
\A1;180
 11
0.0000000000000001
 21
1.0
 31
0.0
1001
ACAD
1000
MTEXTBEGIN
1070
    73
1070
     1
1070
    44
1040
1.0
1070
    74
1070
     0
1000
MTEXTEND
1000
MTEXTBEGIN
1070
    73
1070
     1
1070
    44
1040
1.0
1070
    74
1070
     0
1000
MTEXTEND
1000
MTEXTBEGIN
1070
    73
1070
     1
1070
    44
1040
1.0
1070
    74
1070
     0
1000
MTEXTEND
  0
POINT
  5
86FD
330
7924
100
AcDbEntity
  8
DEFPOINTS
 62
     0
100
AcDbPoint
 10
86.99998493607614
 20
-89.99999601728335
 30
0.0
  0
POINT
  5
86FE
330
7924
100
AcDbEntity
  8
DEFPOINTS
 62
     0
100
AcDbPoint
 10
86.99998493607614
 20
90.00001234200977
 30
0.0
  0
POINT
  5
86FF
330
7924
100
AcDbEntity
  8
DEFPOINTS
 62
     0
100
AcDbPoint
 10
125.3720095788777
 20
90.00001234200977
 30
0.0
  0
ENDBLK
  5
792F
330
7924
100
AcDbEntity
  8
0
100
AcDbBlockEnd
  0
BLOCK
  5
793A
330
7930
100
AcDbEntity
  8
0
100
AcDbBlockBegin
  2
*D13
 70
     1
 10
0.0
 20
0.0
 30
0.0
  3
*D13
  1

  0
LINE
  5
86EE
330
7930
100
AcDbEntity
  8
30
 62
     0
100
AcDbLine
 10
88.50000000000006
 20
-82.50000000000005
 30
0.0
 11
107.1220095788776
 21
-82.50000000000005
 31
0.0
  0
LINE
  5
86EF
330
7930
100
AcDbEntity
  8
30
 62
     0
100
AcDbLine
 10
88.50000000000006
 20
82.5
 30
0.0
 11
107.1220095788776
 21
82.49999999999998
 31
0.0
  0
LINE
  5
86F0
330
7930
100
AcDbEntity
  8
30
 62
     0
100
AcDbLine
 10
106.6220095788775
 20
-80.50000000000007
 30
0.0
 11
106.6220095788775
 21
80.49999999999998
 31
0.0
  0
INSERT
  5
86F1
330
7930
100
AcDbEntity
  8
30
 62
     0
100
AcDbBlockReference
  2
_OPEN
 10
106.6220095788775
 20
-82.50000000000005
 30
0.0
 41
2.0
 42
2.0
 43
2.0
 50
270.0
  0
INSERT
  5
86F2
330
7930
100
AcDbEntity
  8
30
 62
     0
100
AcDbBlockReference
  2
_OPEN
 10
106.6220095788775
 20
82.49999999999998
 30
0.0
 41
2.0
 42
2.0
 43
2.0
 50
90.0
  0
MTEXT
  5
86F3
330
7930
100
AcDbEntity
  8
30
 62
     0
100
AcDbMText
 10
103.6220095788777
 20
-0.0000000000000133
 30
0.0
 40
4.0
 41
0.0
 71
     5
 72
     1
  1
\A1;165
 11
0.0000000000000001
 21
1.0
 31
0.0
1001
ACAD
1000
MTEXTBEGIN
1070
    73
1070
     1
1070
    44
1040
1.0
1070
    74
1070
     0
1000
MTEXTEND
1000
MTEXTBEGIN
1070
    73
1070
     1
1070
    44
1040
1.0
1070
    74
1070
     0
1000
MTEXTEND
1000
MTEXTBEGIN
1070
    73
1070
     1
1070
    44
1040
1.0
1070
    74
1070
     0
1000
MTEXTEND
  0
POINT
  5
86F4
330
7930
100
AcDbEntity
  8
DEFPOINTS
 62
     0
100
AcDbPoint
 10
87.50000000000005
 20
-82.50000000000005
 30
0.0
  0
POINT
  5
86F5
330
7930
100
AcDbEntity
  8
DEFPOINTS
 62
     0
100
AcDbPoint
 10
87.50000000000005
 20
82.5
 30
0.0
  0
POINT
  5
86F6
330
7930
100
AcDbEntity
  8
DEFPOINTS
 62
     0
100
AcDbPoint
 10
106.6220095788775
 20
82.49999999999998
 30
0.0
  0
ENDBLK
  5
793B
330
7930
100
AcDbEntity
  8
0
100
AcDbBlockEnd
  0
BLOCK
  5
8048
330
803E
100
AcDbEntity
  8
0
100
AcDbBlockBegin
  2
*D14
 70
     1
 10
0.0
 20
0.0
 30
0.0
  3
*D14
  1

  0
LINE
  5
8763
330
803E
100
AcDbEntity
  8
30
 62
     0
100
AcDbLine
 10
-53.49999999999994
 20
-51.0
 30
0.0
 11
-80.75299098005459
 21
-50.99999999999999
 31
0.0
  0
LINE
  5
8764
330
803E
100
AcDbEntity
  8
30
 62
     0
100
AcDbLine
 10
-53.49999999999994
 20
51.0
 30
0.0
 11
-80.75299098005457
 21
51.00000000000001
 31
0.0
  0
LINE
  5
8765
330
803E
100
AcDbEntity
  8
30
 62
     0
100
AcDbLine
 10
-80.2529909800546
 20
-48.99999999999999
 30
0.0
 11
-80.25299098005456
 21
49.00000000000001
 31
0.0
  0
INSERT
  5
8766
330
803E
100
AcDbEntity
  8
30
 62
     0
100
AcDbBlockReference
  2
_OPEN
 10
-80.2529909800546
 20
-50.99999999999999
 30
0.0
 41
2.0
 42
2.0
 43
2.0
 50
270.0
  0
INSERT
  5
8767
330
803E
100
AcDbEntity
  8
30
 62
     0
100
AcDbBlockReference
  2
_OPEN
 10
-80.25299098005456
 20
51.00000000000001
 30
0.0
 41
2.0
 42
2.0
 43
2.0
 50
90.0
  0
MTEXT
  5
8768
330
803E
100
AcDbEntity
  8
30
 62
     0
100
AcDbMText
 10
-83.25299098005457
 20
-0.0000000000000089
 30
0.0
 40
4.0
 41
0.0
 71
     5
 72
     1
  1
\A1;102
 11
0.0000000000000001
 21
1.0
 31
0.0
1001
ACAD
1000
MTEXTBEGIN
1070
    73
1070
     1
1070
    44
1040
1.0
1070
    74
1070
     0
1000
MTEXTEND
1000
MTEXTBEGIN
1070
    73
1070
     1
1070
    44
1040
1.0
1070
    74
1070
     0
1000
MTEXTEND
1000
MTEXTBEGIN
1070
    73
1070
     1
1070
    44
1040
1.0
1070
    74
1070
     0
1000
MTEXTEND
  0
POINT
  5
8769
330
803E
100
AcDbEntity
  8
DEFPOINTS
 62
     0
100
AcDbPoint
 10
-52.49999999999993
 20
-51.0
 30
0.0
  0
POINT
  5
876A
330
803E
100
AcDbEntity
  8
DEFPOINTS
 62
     0
100
AcDbPoint
 10
-52.49999999999993
 20
51.0
 30
0.0
  0
POINT
  5
876B
330
803E
100
AcDbEntity
  8
DEFPOINTS
 62
     0
100
AcDbPoint
 10
-80.25299098005456
 20
51.00000000000001
 30
0.0
  0
ENDBLK
  5
8049
330
803E
100
AcDbEntity
  8
0
100
AcDbBlockEnd
  0
BLOCK
  5
8054
330
804A
100
AcDbEntity
  8
0
100
AcDbBlockBegin
  2
*D15
 70
     1
 10
0.0
 20
0.0
 30
0.0
  3
*D15
  1

  0
LINE
  5
890B
330
804A
100
AcDbEntity
  8
30
 62
     0
100
AcDbLine
 10
-52.5
 20
22.5
 30
0.0
 11
-66.0029909800545
 21
22.5
 31
0.0
  0
LINE
  5
890C
330
804A
100
AcDbEntity
  8
30
 62
     0
100
AcDbLine
 10
-52.5
 20
-22.5
 30
0.0
 11
-66.0029909800545
 21
-22.49999999999999
 31
0.0
  0
LINE
  5
890D
330
804A
100
AcDbEntity
  8
30
 62
     0
100
AcDbLine
 10
-65.5029909800545
 20
20.5
 30
0.0
 11
-65.5029909800545
 21
-20.49999999999998
 31
0.0
  0
INSERT
  5
890E
330
804A
100
AcDbEntity
  8
30
 62
     0
100
AcDbBlockReference
  2
_OPEN
 10
-65.5029909800545
 20
22.5
 30
0.0
 41
2.0
 42
2.0
 43
2.0
 50
90.0
  0
INSERT
  5
890F
330
804A
100
AcDbEntity
  8
30
 62
     0
100
AcDbBlockReference
  2
_OPEN
 10
-65.5029909800545
 20
-22.49999999999999
 30
0.0
 41
2.0
 42
2.0
 43
2.0
 50
270.0
  0
MTEXT
  5
8910
330
804A
100
AcDbEntity
  8
30
 62
     0
100
AcDbMText
 10
-68.5029909800545
 20
-0.0000000000000063
 30
0.0
 40
4.0
 41
0.0
 71
     5
 72
     1
  1
\A1;45
 11
0.0000000000000001
 21
1.0
 31
0.0
1001
ACAD
1000
MTEXTBEGIN
1070
    73
1070
     1
1070
    44
1040
1.0
1070
    74
1070
     0
1000
MTEXTEND
1000
MTEXTBEGIN
1070
    73
1070
     1
1070
    44
1040
1.0
1070
    74
1070
     0
1000
MTEXTEND
  0
POINT
  5
8911
330
804A
100
AcDbEntity
  8
DEFPOINTS
 62
     0
100
AcDbPoint
 10
-51.5
 20
22.5
 30
0.0
  0
POINT
  5
8912
330
804A
100
AcDbEntity
  8
DEFPOINTS
 62
     0
100
AcDbPoint
 10
-51.5
 20
-22.5
 30
0.0
  0
POINT
  5
8913
330
804A
100
AcDbEntity
  8
DEFPOINTS
 62
     0
100
AcDbPoint
 10
-65.5029909800545
 20
-22.49999999999999
 30
0.0
  0
ENDBLK
  5
8055
330
804A
100
AcDbEntity
  8
0
100
AcDbBlockEnd
  0
BLOCK
  5
8060
330
8056
100
AcDbEntity
  8
0
100
AcDbBlockBegin
  2
*D16
 70
     1
 10
0.0
 20
0.0
 30
0.0
  3
*D16
  1

  0
LINE
  5
87BE
330
8056
100
AcDbEntity
  8
30
 62
     0
100
AcDbLine
 10
359.2113904327611
 20
-53.99999766312254
 30
0.0
 11
369.2083937051291
 21
-53.99999766312255
 31
0.0
  0
LINE
  5
87BF
330
8056
100
AcDbEntity
  8
30
 62
     0
100
AcDbLine
 10
359.2113904327611
 20
53.99999766312254
 30
0.0
 11
369.2083937051291
 21
53.99999766312252
 31
0.0
  0
LINE
  5
87C0
330
8056
100
AcDbEntity
  8
30
 62
     0
100
AcDbLine
 10
368.7083937051291
 20
-51.99999766312255
 30
0.0
 11
368.7083937051291
 21
51.99999766312252
 31
0.0
  0
INSERT
  5
87C1
330
8056
100
AcDbEntity
  8
30
 62
     0
100
AcDbBlockReference
  2
_OPEN
 10
368.7083937051291
 20
-53.99999766312255
 30
0.0
 41
2.0
 42
2.0
 43
2.0
 50
270.0
  0
INSERT
  5
87C2
330
8056
100
AcDbEntity
  8
30
 62
     0
100
AcDbBlockReference
  2
_OPEN
 10
368.7083937051291
 20
53.99999766312252
 30
0.0
 41
2.0
 42
2.0
 43
2.0
 50
90.0
  0
MTEXT
  5
87C3
330
8056
100
AcDbEntity
  8
30
 62
     0
100
AcDbMText
 10
365.708393705129
 20
0.000000000000056
 30
0.0
 40
4.0
 41
0.0
 71
     5
 72
     1
  1
\A1;108
 11
0.0000000000000001
 21
1.0
 31
0.0
1001
ACAD
1000
MTEXTBEGIN
1070
    73
1070
     1
1070
    44
1040
1.0
1070
    74
1070
     0
1000
MTEXTEND
1000
MTEXTBEGIN
1070
    73
1070
     1
1070
    44
1040
1.0
1070
    74
1070
     0
1000
MTEXTEND
1000
MTEXTBEGIN
1070
    73
1070
     1
1070
    44
1040
1.0
1070
    74
1070
     0
1000
MTEXTEND
  0
POINT
  5
87C4
330
8056
100
AcDbEntity
  8
DEFPOINTS
 62
     0
100
AcDbPoint
 10
358.2113904327611
 20
-53.99999766312254
 30
0.0
  0
POINT
  5
87C5
330
8056
100
AcDbEntity
  8
DEFPOINTS
 62
     0
100
AcDbPoint
 10
358.2113904327611
 20
53.99999766312254
 30
0.0
  0
POINT
  5
87C6
330
8056
100
AcDbEntity
  8
DEFPOINTS
 62
     0
100
AcDbPoint
 10
368.7083937051291
 20
53.99999766312252
 30
0.0
  0
ENDBLK
  5
8061
330
8056
100
AcDbEntity
  8
0
100
AcDbBlockEnd
  0
BLOCK
  5
806C
330
8062
100
AcDbEntity
  8
0
100
AcDbBlockBegin
  2
*D17
 70
     1
 10
0.0
 20
0.0
 30
0.0
  3
*D17
  1

  0
LINE
  5
8811
330
8062
100
AcDbEntity
  8
30
 62
     0
100
AcDbLine
 10
191.7113846851835
 20
-3.500000016499996
 30
0.0
 11
191.7113846851835
 21
-130.4999999999999
 31
0.0
  0
LINE
  5
8812
330
8062
100
AcDbEntity
  8
30
 62
     0
100
AcDbLine
 10
331.7113852994403
 20
-54.99999766312254
 30
0.0
 11
331.7113852994403
 21
-130.4999999999999
 31
0.0
  0
LINE
  5
8813
330
8062
100
AcDbEntity
  8
30
 62
     0
100
AcDbLine
 10
193.7113846851834
 20
-130.0
 30
0.0
 11
329.7113852994403
 21
-130.0
 31
0.0
  0
INSERT
  5
8814
330
8062
100
AcDbEntity
  8
30
 62
     0
100
AcDbBlockReference
  2
_OPEN
 10
191.7113846851835
 20
-130.0
 30
0.0
 41
2.0
 42
2.0
 43
2.0
 50
180.0
  0
INSERT
  5
8815
330
8062
100
AcDbEntity
  8
30
 62
     0
100
AcDbBlockReference
  2
_OPEN
 10
331.7113852994403
 20
-130.0
 30
0.0
 41
2.0
 42
2.0
 43
2.0
  0
MTEXT
  5
8816
330
8062
100
AcDbEntity
  8
30
 62
     0
100
AcDbMText
 10
261.711384992312
 20
-127.0
 30
0.0
 40
4.0
 41
0.0
 71
     5
 72
     1
  1
\A1;140
1001
ACAD
1000
MTEXTBEGIN
1070
    73
1070
     1
1070
    44
1040
1.0
1070
    74
1070
     0
1000
MTEXTEND
1000
MTEXTBEGIN
1070
    73
1070
     1
1070
    44
1040
1.0
1070
    74
1070
     0
1000
MTEXTEND
1000
MTEXTBEGIN
1070
    73
1070
     1
1070
    44
1040
1.0
1070
    74
1070
     0
1000
MTEXTEND
  0
POINT
  5
8817
330
8062
100
AcDbEntity
  8
DEFPOINTS
 62
     0
100
AcDbPoint
 10
191.7113846851835
 20
-2.500000016499996
 30
0.0
  0
POINT
  5
8818
330
8062
100
AcDbEntity
  8
DEFPOINTS
 62
     0
100
AcDbPoint
 10
331.7113852994403
 20
-53.99999766312254
 30
0.0
  0
POINT
  5
8819
330
8062
100
AcDbEntity
  8
DEFPOINTS
 62
     0
100
AcDbPoint
 10
331.7113852994403
 20
-130.0
 30
0.0
  0
ENDBLK
  5
806D
330
8062
100
AcDbEntity
  8
0
100
AcDbBlockEnd
  0
BLOCK
  5
8078
330
806E
100
AcDbEntity
  8
0
100
AcDbBlockBegin
  2
*D18
 70
     1
 10
0.0
 20
0.0
 30
0.0
  3
*D18
  1

  0
LINE
  5
891E
330
806E
100
AcDbEntity
  8
30
 62
     0
100
AcDbLine
 10
211.7113846851838
 20
-23.5
 30
0.0
 11
211.7113846851838
 21
-120.5
 31
0.0
  0
LINE
  5
891F
330
806E
100
AcDbEntity
  8
30
 62
     0
100
AcDbLine
 10
331.7113852994403
 20
-54.99999766312254
 30
0.0
 11
331.7113852994403
 21
-120.5
 31
0.0
  0
LINE
  5
8920
330
806E
100
AcDbEntity
  8
30
 62
     0
100
AcDbLine
 10
213.7113846851838
 20
-120.0
 30
0.0
 11
329.7113852994403
 21
-120.0
 31
0.0
  0
INSERT
  5
8921
330
806E
100
AcDbEntity
  8
30
 62
     0
100
AcDbBlockReference
  2
_OPEN
 10
211.7113846851838
 20
-120.0
 30
0.0
 41
2.0
 42
2.0
 43
2.0
 50
180.0
  0
INSERT
  5
8922
330
806E
100
AcDbEntity
  8
30
 62
     0
100
AcDbBlockReference
  2
_OPEN
 10
331.7113852994403
 20
-120.0
 30
0.0
 41
2.0
 42
2.0
 43
2.0
  0
MTEXT
  5
8923
330
806E
100
AcDbEntity
  8
30
 62
     0
100
AcDbMText
 10
271.7113849923119
 20
-117.0
 30
0.0
 40
4.0
 41
0.0
 71
     5
 72
     1
  1
\A1;120
1001
ACAD
1000
MTEXTBEGIN
1070
    73
1070
     1
1070
    44
1040
1.0
1070
    74
1070
     0
1000
MTEXTEND
1000
MTEXTBEGIN
1070
    73
1070
     1
1070
    44
1040
1.0
1070
    74
1070
     0
1000
MTEXTEND
  0
POINT
  5
8924
330
806E
100
AcDbEntity
  8
DEFPOINTS
 62
     0
100
AcDbPoint
 10
211.7113846851838
 20
-22.5
 30
0.0
  0
POINT
  5
8925
330
806E
100
AcDbEntity
  8
DEFPOINTS
 62
     0
100
AcDbPoint
 10
331.7113852994403
 20
-53.99999766312254
 30
0.0
  0
POINT
  5
8926
330
806E
100
AcDbEntity
  8
DEFPOINTS
 62
     0
100
AcDbPoint
 10
331.7113852994403
 20
-120.0
 30
0.0
  0
ENDBLK
  5
8079
330
806E
100
AcDbEntity
  8
0
100
AcDbBlockEnd
  0
BLOCK
  5
8085
330
807A
100
AcDbEntity
  8
0
100
AcDbBlockBegin
  2
*D19
 70
     1
 10
0.0
 20
0.0
 30
0.0
  3
*D19
  1

  0
LINE
  5
8914
330
807A
100
AcDbEntity
  8
30
 62
     0
100
AcDbLine
 10
207.7113846851835
 20
-23.5
 30
0.0
 11
207.7113846851835
 21
-120.5
 31
0.0
  0
LINE
  5
8915
330
807A
100
AcDbEntity
  8
30
 62
     0
100
AcDbLine
 10
211.7113846851838
 20
-23.5
 30
0.0
 11
211.7113846851838
 21
-120.5
 31
0.0
  0
LINE
  5
8916
330
807A
100
AcDbEntity
  8
30
 62
     0
100
AcDbLine
 10
205.7113846851835
 20
-120.0
 30
0.0
 11
203.7113846851835
 21
-120.0
 31
0.0
  0
LINE
  5
8917
330
807A
100
AcDbEntity
  8
30
 62
     0
100
AcDbLine
 10
213.7113846851838
 20
-120.0
 30
0.0
 11
220.3780513518503
 21
-120.0
 31
0.0
  0
INSERT
  5
8918
330
807A
100
AcDbEntity
  8
30
 62
     0
100
AcDbBlockReference
  2
_OPEN
 10
207.7113846851835
 20
-120.0
 30
0.0
 41
2.0
 42
2.0
 43
2.0
  0
INSERT
  5
8919
330
807A
100
AcDbEntity
  8
30
 62
     0
100
AcDbBlockReference
  2
_OPEN
 10
211.7113846851838
 20
-120.0
 30
0.0
 41
2.0
 42
2.0
 43
2.0
 50
180.0
  0
MTEXT
  5
891A
330
807A
100
AcDbEntity
  8
30
 62
     0
100
AcDbMText
 10
218.0447180185171
 20
-117.0
 30
0.0
 40
4.0
 41
0.0
 71
     5
 72
     1
  1
\A1;4
1001
ACAD
1000
MTEXTBEGIN
1070
    73
1070
     1
1070
    44
1040
1.0
1070
    74
1070
     0
1000
MTEXTEND
1000
MTEXTBEGIN
1070
    73
1070
     1
1070
    44
1040
1.0
1070
    74
1070
     0
1000
MTEXTEND
  0
POINT
  5
891B
330
807A
100
AcDbEntity
  8
DEFPOINTS
 62
     0
100
AcDbPoint
 10
207.7113846851835
 20
-22.5
 30
0.0
  0
POINT
  5
891C
330
807A
100
AcDbEntity
  8
DEFPOINTS
 62
     0
100
AcDbPoint
 10
211.7113846851838
 20
-22.5
 30
0.0
  0
POINT
  5
891D
330
807A
100
AcDbEntity
  8
DEFPOINTS
 62
     0
100
AcDbPoint
 10
211.7113846851838
 20
-120.0
 30
0.0
  0
ENDBLK
  5
8086
330
807A
100
AcDbEntity
  8
0
100
AcDbBlockEnd
  0
BLOCK
  5
8091
330
8087
100
AcDbEntity
  8
0
100
AcDbBlockBegin
  2
*D20
 70
     1
 10
0.0
 20
0.0
 30
0.0
  3
*D20
  1

  0
LINE
  5
87EB
330
8087
100
AcDbEntity
  8
30
 62
     0
100
AcDbLine
 10
331.7113852994403
 20
-54.99999766312254
 30
0.0
 11
331.7113852994403
 21
-110.4999999999999
 31
0.0
  0
LINE
  5
87EC
330
8087
100
AcDbEntity
  8
30
 62
     0
100
AcDbLine
 10
358.7113841310013
 20
-88.99999305169426
 30
0.0
 11
358.7113841310013
 21
-110.4999999999999
 31
0.0
  0
LINE
  5
87ED
330
8087
100
AcDbEntity
  8
30
 62
     0
100
AcDbLine
 10
333.7113852994401
 20
-110.0
 30
0.0
 11
356.7113841310013
 21
-110.0
 31
0.0
  0
INSERT
  5
87EE
330
8087
100
AcDbEntity
  8
30
 62
     0
100
AcDbBlockReference
  2
_OPEN
 10
331.7113852994403
 20
-110.0
 30
0.0
 41
2.0
 42
2.0
 43
2.0
 50
180.0
  0
INSERT
  5
87EF
330
8087
100
AcDbEntity
  8
30
 62
     0
100
AcDbBlockReference
  2
_OPEN
 10
358.7113841310013
 20
-110.0
 30
0.0
 41
2.0
 42
2.0
 43
2.0
  0
MTEXT
  5
87F0
330
8087
100
AcDbEntity
  8
30
 62
     0
100
AcDbMText
 10
345.2113847152208
 20
-107.0
 30
0.0
 40
4.0
 41
0.0
 71
     5
 72
     1
  1
\A1;27
1001
ACAD
1000
MTEXTBEGIN
1070
    73
1070
     1
1070
    44
1040
1.0
1070
    74
1070
     0
1000
MTEXTEND
1000
MTEXTBEGIN
1070
    73
1070
     1
1070
    44
1040
1.0
1070
    74
1070
     0
1000
MTEXTEND
1000
MTEXTBEGIN
1070
    73
1070
     1
1070
    44
1040
1.0
1070
    74
1070
     0
1000
MTEXTEND
  0
POINT
  5
87F1
330
8087
100
AcDbEntity
  8
DEFPOINTS
 62
     0
100
AcDbPoint
 10
331.7113852994403
 20
-53.99999766312254
 30
0.0
  0
POINT
  5
87F2
330
8087
100
AcDbEntity
  8
DEFPOINTS
 62
     0
100
AcDbPoint
 10
358.7113841310013
 20
-87.99999305169427
 30
0.0
  0
POINT
  5
87F3
330
8087
100
AcDbEntity
  8
DEFPOINTS
 62
     0
100
AcDbPoint
 10
358.7113841310013
 20
-110.0
 30
0.0
  0
ENDBLK
  5
8092
330
8087
100
AcDbEntity
  8
0
100
AcDbBlockEnd
  0
BLOCK
  5
809D
330
8093
100
AcDbEntity
  8
0
100
AcDbBlockBegin
  2
*D21
 70
     1
 10
0.0
 20
0.0
 30
0.0
  3
*D21
  1

  0
LINE
  5
87E2
330
8093
100
AcDbEntity
  8
30
 62
     0
100
AcDbLine
 10
215.7113846851838
 20
-52.0
 30
0.0
 11
215.7113846851838
 21
-110.4999999999999
 31
0.0
  0
LINE
  5
87E3
330
8093
100
AcDbEntity
  8
30
 62
     0
100
AcDbLine
 10
331.7113852994403
 20
-54.99999766312254
 30
0.0
 11
331.7113852994403
 21
-110.4999999999999
 31
0.0
  0
LINE
  5
87E4
330
8093
100
AcDbEntity
  8
30
 62
     0
100
AcDbLine
 10
217.7113846851838
 20
-110.0
 30
0.0
 11
329.7113852994403
 21
-110.0
 31
0.0
  0
INSERT
  5
87E5
330
8093
100
AcDbEntity
  8
30
 62
     0
100
AcDbBlockReference
  2
_OPEN
 10
215.7113846851838
 20
-110.0
 30
0.0
 41
2.0
 42
2.0
 43
2.0
 50
180.0
  0
INSERT
  5
87E6
330
8093
100
AcDbEntity
  8
30
 62
     0
100
AcDbBlockReference
  2
_OPEN
 10
331.7113852994403
 20
-110.0
 30
0.0
 41
2.0
 42
2.0
 43
2.0
  0
MTEXT
  5
87E7
330
8093
100
AcDbEntity
  8
30
 62
     0
100
AcDbMText
 10
273.7113849923118
 20
-107.0
 30
0.0
 40
4.0
 41
0.0
 71
     5
 72
     1
  1
\A1;116
1001
ACAD
1000
MTEXTBEGIN
1070
    73
1070
     1
1070
    44
1040
1.0
1070
    74
1070
     0
1000
MTEXTEND
1000
MTEXTBEGIN
1070
    73
1070
     1
1070
    44
1040
1.0
1070
    74
1070
     0
1000
MTEXTEND
1000
MTEXTBEGIN
1070
    73
1070
     1
1070
    44
1040
1.0
1070
    74
1070
     0
1000
MTEXTEND
  0
POINT
  5
87E8
330
8093
100
AcDbEntity
  8
DEFPOINTS
 62
     0
100
AcDbPoint
 10
215.7113846851838
 20
-51.0
 30
0.0
  0
POINT
  5
87E9
330
8093
100
AcDbEntity
  8
DEFPOINTS
 62
     0
100
AcDbPoint
 10
331.7113852994403
 20
-53.99999766312254
 30
0.0
  0
POINT
  5
87EA
330
8093
100
AcDbEntity
  8
DEFPOINTS
 62
     0
100
AcDbPoint
 10
331.7113852994403
 20
-110.0
 30
0.0
  0
ENDBLK
  5
809E
330
8093
100
AcDbEntity
  8
0
100
AcDbBlockEnd
  0
BLOCK
  5
80A9
330
809F
100
AcDbEntity
  8
0
100
AcDbBlockBegin
  2
*D22
 70
     1
 10
0.0
 20
0.0
 30
0.0
  3
*D22
  1

  0
LINE
  5
87B5
330
809F
100
AcDbEntity
  8
30
 62
     0
100
AcDbLine
 10
359.2113904327611
 20
-89.99999206798303
 30
0.0
 11
387.9583937051291
 21
-89.99999206798303
 31
0.0
  0
LINE
  5
87B6
330
809F
100
AcDbEntity
  8
30
 62
     0
100
AcDbLine
 10
359.2113904327611
 20
90.00000417964656
 30
0.0
 11
387.9583937051291
 21
90.00000417964656
 31
0.0
  0
LINE
  5
87B7
330
809F
100
AcDbEntity
  8
30
 62
     0
100
AcDbLine
 10
387.4583937051291
 20
-87.99999206798302
 30
0.0
 11
387.4583937051291
 21
88.00000417964657
 31
0.0
  0
INSERT
  5
87B8
330
809F
100
AcDbEntity
  8
30
 62
     0
100
AcDbBlockReference
  2
_OPEN
 10
387.4583937051291
 20
-89.99999206798303
 30
0.0
 41
2.0
 42
2.0
 43
2.0
 50
270.0
  0
INSERT
  5
87B9
330
809F
100
AcDbEntity
  8
30
 62
     0
100
AcDbBlockReference
  2
_OPEN
 10
387.4583937051291
 20
90.00000417964656
 30
0.0
 41
2.0
 42
2.0
 43
2.0
 50
90.0
  0
MTEXT
  5
87BA
330
809F
100
AcDbEntity
  8
30
 62
     0
100
AcDbMText
 10
384.458393705129
 20
0.0000060558318304
 30
0.0
 40
4.0
 41
0.0
 71
     5
 72
     1
  1
\A1;180
 11
0.0000000000000001
 21
1.0
 31
0.0
1001
ACAD
1000
MTEXTBEGIN
1070
    73
1070
     1
1070
    44
1040
1.0
1070
    74
1070
     0
1000
MTEXTEND
1000
MTEXTBEGIN
1070
    73
1070
     1
1070
    44
1040
1.0
1070
    74
1070
     0
1000
MTEXTEND
1000
MTEXTBEGIN
1070
    73
1070
     1
1070
    44
1040
1.0
1070
    74
1070
     0
1000
MTEXTEND
  0
POINT
  5
87BB
330
809F
100
AcDbEntity
  8
DEFPOINTS
 62
     0
100
AcDbPoint
 10
358.2113904327611
 20
-89.99999206798303
 30
0.0
  0
POINT
  5
87BC
330
809F
100
AcDbEntity
  8
DEFPOINTS
 62
     0
100
AcDbPoint
 10
358.2113904327611
 20
90.00000417964656
 30
0.0
  0
POINT
  5
87BD
330
809F
100
AcDbEntity
  8
DEFPOINTS
 62
     0
100
AcDbPoint
 10
387.4583937051291
 20
90.00000417964656
 30
0.0
  0
ENDBLK
  5
80AA
330
809F
100
AcDbEntity
  8
0
100
AcDbBlockEnd
  0
BLOCK
  5
80B5
330
80AB
100
AcDbEntity
  8
0
100
AcDbBlockBegin
  2
*D23
 70
     1
 10
0.0
 20
0.0
 30
0.0
  3
*D23
  1

  0
LINE
  5
87D0
330
80AB
100
AcDbEntity
  8
30
 62
     0
100
AcDbLine
 10
222.7113846851838
 20
-83.50000000000004
 30
0.0
 11
222.7113846851838
 21
-100.5
 31
0.0
  0
LINE
  5
87D1
330
80AB
100
AcDbEntity
  8
30
 62
     0
100
AcDbLine
 10
283.7113846851838
 20
-83.50000000000004
 30
0.0
 11
283.7113846851838
 21
-100.5
 31
0.0
  0
LINE
  5
87D2
330
80AB
100
AcDbEntity
  8
30
 62
     0
100
AcDbLine
 10
224.7113846851838
 20
-100.0
 30
0.0
 11
281.7113846851838
 21
-100.0
 31
0.0
  0
INSERT
  5
87D3
330
80AB
100
AcDbEntity
  8
30
 62
     0
100
AcDbBlockReference
  2
_OPEN
 10
222.7113846851838
 20
-100.0
 30
0.0
 41
2.0
 42
2.0
 43
2.0
 50
180.0
  0
INSERT
  5
87D4
330
80AB
100
AcDbEntity
  8
30
 62
     0
100
AcDbBlockReference
  2
_OPEN
 10
283.7113846851838
 20
-100.0
 30
0.0
 41
2.0
 42
2.0
 43
2.0
  0
MTEXT
  5
87D5
330
80AB
100
AcDbEntity
  8
30
 62
     0
100
AcDbMText
 10
253.2113846851838
 20
-97.0
 30
0.0
 40
4.0
 41
0.0
 71
     5
 72
     1
  1
\A1;61
1001
ACAD
1000
MTEXTBEGIN
1070
    73
1070
     1
1070
    44
1040
1.0
1070
    74
1070
     0
1000
MTEXTEND
1000
MTEXTBEGIN
1070
    73
1070
     1
1070
    44
1040
1.0
1070
    74
1070
     0
1000
MTEXTEND
1000
MTEXTBEGIN
1070
    73
1070
     1
1070
    44
1040
1.0
1070
    74
1070
     0
1000
MTEXTEND
  0
POINT
  5
87D6
330
80AB
100
AcDbEntity
  8
DEFPOINTS
 62
     0
100
AcDbPoint
 10
222.7113846851838
 20
-82.50000000000005
 30
0.0
  0
POINT
  5
87D7
330
80AB
100
AcDbEntity
  8
DEFPOINTS
 62
     0
100
AcDbPoint
 10
283.7113846851838
 20
-82.50000000000005
 30
0.0
  0
POINT
  5
87D8
330
80AB
100
AcDbEntity
  8
DEFPOINTS
 62
     0
100
AcDbPoint
 10
283.7113846851838
 20
-100.0
 30
0.0
  0
ENDBLK
  5
80B6
330
80AB
100
AcDbEntity
  8
0
100
AcDbBlockEnd
  0
BLOCK
  5
8118
330
8112
100
AcDbEntity
  8
TOP
  6
CONTINUOUS
 62
     4
100
AcDbBlockBegin
  2
*U24
 70
     1
 10
0.0
 20
0.0
 30
0.0
  3
*U24
  1

  0
LINE
  5
8113
330
8112
100
AcDbEntity
  8
1
  6
BYBLOCK
 62
     0
100
AcDbLine
 10
390.9468504843644
 20
74.6171844719409
 30
0.0
 11
395.9468504843643
 21
74.6171844719409
 31
0.0
  0
LINE
  5
8114
330
8112
100
AcDbEntity
  8
1
  6
BYBLOCK
 62
     0
100
AcDbLine
 10
378.4026021933868
 20
91.57832257281283
 30
0.0
 11
390.9468504843644
 21
74.6171844719409
 31
0.0
  0
SOLID
  5
8115
330
8112
100
AcDbEntity
  8
1
  6
BYBLOCK
 62
     0
100
AcDbTrace
 10
378.4026021933868
 20
91.57832257281283
 30
0.0
 11
379.8598598608453
 21
90.16853136273569
 31
0.0
 12
379.3238595944712
 22
89.77211218464516
 32
0.0
 13
379.3238595944712
 23
89.77211218464516
 33
0.0
  0
TEXT
  5
8116
330
8112
100
AcDbEntity
  8
TOP
  6
BYBLOCK
 62
     0
100
AcDbText
 10
397.6786213203299
 20
73.3671844700409
 30
0.0
 40
2.500000003799998
  1
 
 41
1.189062499999995
  7
UGMTXT
100
AcDbText
  0
TEXT
  5
8117
330
8112
100
AcDbEntity
  8
TOP
  6
BYBLOCK
 62
     0
100
AcDbText
 10
395.9468504843643
 20
73.3671844700409
 30
0.0
 40
2.500000003799998
  1
 
 41
1.189062499999995
  7
UGMTXT
100
AcDbText
  0
ENDBLK
  5
8119
330
8112
100
AcDbEntity
  8
0
100
AcDbBlockEnd
  0
BLOCK
  5
832E
330
8324
100
AcDbEntity
  8
0
100
AcDbBlockBegin
  2
*D25
 70
     1
 10
0.0
 20
0.0
 30
0.0
  3
*D25
  1

  0
LINE
  5
889A
330
8324
100
AcDbEntity
  8
30
 62
     0
100
AcDbLine
 10
232.4999999999997
 20
-401.0000000000003
 30
0.0
 11
232.4999999999997
 21
-439.7044464119913
 31
0.0
  0
LINE
  5
889B
330
8324
100
AcDbEntity
  8
30
 62
     0
100
AcDbLine
 10
372.5000000000001
 20
-401.0000000000003
 30
0.0
 11
372.5000000000001
 21
-439.7044464119913
 31
0.0
  0
LINE
  5
889C
330
8324
100
AcDbEntity
  8
30
 62
     0
100
AcDbLine
 10
234.4999999999997
 20
-439.2044464119913
 30
0.0
 11
370.5000000000001
 21
-439.2044464119913
 31
0.0
  0
INSERT
  5
889D
330
8324
100
AcDbEntity
  8
30
 62
     0
100
AcDbBlockReference
  2
_OPEN
 10
232.4999999999997
 20
-439.2044464119913
 30
0.0
 41
2.0
 42
2.0
 43
2.0
 50
180.0
  0
INSERT
  5
889E
330
8324
100
AcDbEntity
  8
30
 62
     0
100
AcDbBlockReference
  2
_OPEN
 10
372.5000000000001
 20
-439.2044464119913
 30
0.0
 41
2.0
 42
2.0
 43
2.0
  0
MTEXT
  5
889F
330
8324
100
AcDbEntity
  8
30
 62
     0
100
AcDbMText
 10
302.4999999999999
 20
-436.2044464119913
 30
0.0
 40
4.0
 41
0.0
 71
     5
 72
     1
  1
\A1;140
1001
ACAD
1000
MTEXTBEGIN
1070
    73
1070
     1
1070
    44
1040
1.0
1070
    74
1070
     0
1000
MTEXTEND
1000
MTEXTBEGIN
1070
    73
1070
     1
1070
    44
1040
1.0
1070
    74
1070
     0
1000
MTEXTEND
1000
MTEXTBEGIN
1070
    73
1070
     1
1070
    44
1040
1.0
1070
    74
1070
     0
1000
MTEXTEND
  0
POINT
  5
88A0
330
8324
100
AcDbEntity
  8
DEFPOINTS
 62
     0
100
AcDbPoint
 10
232.4999999999997
 20
-400.0000000000001
 30
0.0
  0
POINT
  5
88A1
330
8324
100
AcDbEntity
  8
DEFPOINTS
 62
     0
100
AcDbPoint
 10
372.5000000000001
 20
-400.0000000000001
 30
0.0
  0
POINT
  5
88A2
330
8324
100
AcDbEntity
  8
DEFPOINTS
 62
     0
100
AcDbPoint
 10
372.5000000000001
 20
-439.2044464119913
 30
0.0
  0
ENDBLK
  5
832F
330
8324
100
AcDbEntity
  8
0
100
AcDbBlockEnd
  0
BLOCK
  5
833A
330
8330
100
AcDbEntity
  8
0
100
AcDbBlockBegin
  2
*D26
 70
     1
 10
0.0
 20
0.0
 30
0.0
  3
*D26
  1

  0
LINE
  5
8891
330
8330
100
AcDbEntity
  8
30
 62
     0
100
AcDbLine
 10
284.9999999999998
 20
-234.4999999835001
 30
0.0
 11
284.9999999999998
 21
-192.0368080138015
 31
0.0
  0
LINE
  5
8892
330
8330
100
AcDbEntity
  8
30
 62
     0
100
AcDbLine
 10
319.9999999999998
 20
-196.0
 30
0.0
 11
319.9999999999998
 21
-192.0368080138015
 31
0.0
  0
LINE
  5
8893
330
8330
100
AcDbEntity
  8
30
 62
     0
100
AcDbLine
 10
286.9999999999998
 20
-192.5368080138015
 30
0.0
 11
317.9999999999998
 21
-192.5368080138015
 31
0.0
  0
INSERT
  5
8894
330
8330
100
AcDbEntity
  8
30
 62
     0
100
AcDbBlockReference
  2
_OPEN
 10
284.9999999999998
 20
-192.5368080138015
 30
0.0
 41
2.0
 42
2.0
 43
2.0
 50
180.0
  0
INSERT
  5
8895
330
8330
100
AcDbEntity
  8
30
 62
     0
100
AcDbBlockReference
  2
_OPEN
 10
319.9999999999998
 20
-192.5368080138015
 30
0.0
 41
2.0
 42
2.0
 43
2.0
  0
MTEXT
  5
8896
330
8330
100
AcDbEntity
  8
30
 62
     0
100
AcDbMText
 10
302.4999999999999
 20
-189.5368080138015
 30
0.0
 40
4.0
 41
0.0
 71
     5
 72
     1
  1
\A1;35
1001
ACAD
1000
MTEXTBEGIN
1070
    73
1070
     1
1070
    44
1040
1.0
1070
    74
1070
     0
1000
MTEXTEND
1000
MTEXTBEGIN
1070
    73
1070
     1
1070
    44
1040
1.0
1070
    74
1070
     0
1000
MTEXTEND
1000
MTEXTBEGIN
1070
    73
1070
     1
1070
    44
1040
1.0
1070
    74
1070
     0
1000
MTEXTEND
  0
POINT
  5
8897
330
8330
100
AcDbEntity
  8
DEFPOINTS
 62
     0
100
AcDbPoint
 10
284.9999999999998
 20
-235.4999999835
 30
0.0
  0
POINT
  5
8898
330
8330
100
AcDbEntity
  8
DEFPOINTS
 62
     0
100
AcDbPoint
 10
319.9999999999998
 20
-197.0000000000002
 30
0.0
  0
POINT
  5
8899
330
8330
100
AcDbEntity
  8
DEFPOINTS
 62
     0
100
AcDbPoint
 10
319.9999999999998
 20
-192.5368080138015
 30
0.0
  0
ENDBLK
  5
833B
330
8330
100
AcDbEntity
  8
0
100
AcDbBlockEnd
  0
BLOCK
  5
8346
330
833C
100
AcDbEntity
  8
0
100
AcDbBlockBegin
  2
*D27
 70
     1
 10
0.0
 20
0.0
 30
0.0
  3
*D27
  1

  0
LINE
  5
8888
330
833C
100
AcDbEntity
  8
30
 62
     0
100
AcDbLine
 10
249.9999999999999
 20
-234.4999999835001
 30
0.0
 11
249.9999999999999
 21
-173.2868080138015
 31
0.0
  0
LINE
  5
8889
330
833C
100
AcDbEntity
  8
30
 62
     0
100
AcDbLine
 10
354.9999999999998
 20
-234.4999999835001
 30
0.0
 11
354.9999999999998
 21
-173.2868080138015
 31
0.0
  0
LINE
  5
888A
330
833C
100
AcDbEntity
  8
30
 62
     0
100
AcDbLine
 10
251.9999999999999
 20
-173.7868080138015
 30
0.0
 11
352.9999999999998
 21
-173.7868080138015
 31
0.0
  0
INSERT
  5
888B
330
833C
100
AcDbEntity
  8
30
 62
     0
100
AcDbBlockReference
  2
_OPEN
 10
249.9999999999999
 20
-173.7868080138015
 30
0.0
 41
2.0
 42
2.0
 43
2.0
 50
180.0
  0
INSERT
  5
888C
330
833C
100
AcDbEntity
  8
30
 62
     0
100
AcDbBlockReference
  2
_OPEN
 10
354.9999999999998
 20
-173.7868080138015
 30
0.0
 41
2.0
 42
2.0
 43
2.0
  0
MTEXT
  5
888D
330
833C
100
AcDbEntity
  8
30
 62
     0
100
AcDbMText
 10
302.4999999999999
 20
-170.7868080138015
 30
0.0
 40
4.0
 41
0.0
 71
     5
 72
     1
  1
\A1;105
1001
ACAD
1000
MTEXTBEGIN
1070
    73
1070
     1
1070
    44
1040
1.0
1070
    74
1070
     0
1000
MTEXTEND
1000
MTEXTBEGIN
1070
    73
1070
     1
1070
    44
1040
1.0
1070
    74
1070
     0
1000
MTEXTEND
1000
MTEXTBEGIN
1070
    73
1070
     1
1070
    44
1040
1.0
1070
    74
1070
     0
1000
MTEXTEND
  0
POINT
  5
888E
330
833C
100
AcDbEntity
  8
DEFPOINTS
 62
     0
100
AcDbPoint
 10
249.9999999999999
 20
-235.4999999835
 30
0.0
  0
POINT
  5
888F
330
833C
100
AcDbEntity
  8
DEFPOINTS
 62
     0
100
AcDbPoint
 10
354.9999999999998
 20
-235.4999999835
 30
0.0
  0
POINT
  5
8890
330
833C
100
AcDbEntity
  8
DEFPOINTS
 62
     0
100
AcDbPoint
 10
354.9999999999998
 20
-173.7868080138015
 30
0.0
  0
ENDBLK
  5
8347
330
833C
100
AcDbEntity
  8
0
100
AcDbBlockEnd
  0
BLOCK
  5
8352
330
8348
100
AcDbEntity
  8
0
100
AcDbBlockBegin
  2
*D28
 70
     1
 10
0.0
 20
0.0
 30
0.0
  3
*D28
  1

  0
LINE
  5
8864
330
8348
100
AcDbEntity
  8
30
 62
     0
100
AcDbLine
 10
267.4999999999993
 20
-276.0000000165002
 30
0.0
 11
267.4999999999993
 21
-292.7868080138015
 31
0.0
  0
LINE
  5
8865
330
8348
100
AcDbEntity
  8
30
 62
     0
100
AcDbLine
 10
319.9999999999998
 20
-241.5000000165
 30
0.0
 11
319.9999999999998
 21
-292.7868080138015
 31
0.0
  0
LINE
  5
8866
330
8348
100
AcDbEntity
  8
30
 62
     0
100
AcDbLine
 10
269.4999999999993
 20
-292.2868080138016
 30
0.0
 11
317.9999999999998
 21
-292.2868080138016
 31
0.0
  0
INSERT
  5
8867
330
8348
100
AcDbEntity
  8
30
 62
     0
100
AcDbBlockReference
  2
_OPEN
 10
267.4999999999993
 20
-292.2868080138016
 30
0.0
 41
2.0
 42
2.0
 43
2.0
 50
180.0
  0
INSERT
  5
8868
330
8348
100
AcDbEntity
  8
30
 62
     0
100
AcDbBlockReference
  2
_OPEN
 10
319.9999999999998
 20
-292.2868080138016
 30
0.0
 41
2.0
 42
2.0
 43
2.0
  0
MTEXT
  5
8869
330
8348
100
AcDbEntity
  8
30
 62
     0
100
AcDbMText
 10
293.7499999999997
 20
-289.2868080138014
 30
0.0
 40
4.0
 41
0.0
 71
     5
 72
     1
  1
\A1;52.5
1001
ACAD
1000
MTEXTBEGIN
1070
    73
1070
     1
1070
    44
1040
1.0
1070
    74
1070
     0
1000
MTEXTEND
1000
MTEXTBEGIN
1070
    73
1070
     1
1070
    44
1040
1.0
1070
    74
1070
     0
1000
MTEXTEND
1000
MTEXTBEGIN
1070
    73
1070
     1
1070
    44
1040
1.0
1070
    74
1070
     0
1000
MTEXTEND
  0
POINT
  5
886A
330
8348
100
AcDbEntity
  8
DEFPOINTS
 62
     0
100
AcDbPoint
 10
267.4999999999993
 20
-275.0000000165002
 30
0.0
  0
POINT
  5
886B
330
8348
100
AcDbEntity
  8
DEFPOINTS
 62
     0
100
AcDbPoint
 10
319.9999999999998
 20
-240.5000000165002
 30
0.0
  0
POINT
  5
886C
330
8348
100
AcDbEntity
  8
DEFPOINTS
 62
     0
100
AcDbPoint
 10
319.9999999999998
 20
-292.2868080138016
 30
0.0
  0
ENDBLK
  5
8353
330
8348
100
AcDbEntity
  8
0
100
AcDbBlockEnd
  0
BLOCK
  5
835E
330
8354
100
AcDbEntity
  8
0
100
AcDbBlockBegin
  2
*D29
 70
     1
 10
0.0
 20
0.0
 30
0.0
  3
*D29
  1

  0
LINE
  5
8876
330
8354
100
AcDbEntity
  8
30
 62
     0
100
AcDbLine
 10
341.0000000164996
 20
-347.5000000000001
 30
0.0
 11
402.4970095741281
 21
-347.5000000000004
 31
0.0
  0
LINE
  5
8877
330
8354
100
AcDbEntity
  8
30
 62
     0
100
AcDbLine
 10
341.0000000164996
 20
-272.5000000000001
 30
0.0
 11
402.4970095741281
 21
-272.5000000000004
 31
0.0
  0
LINE
  5
8878
330
8354
100
AcDbEntity
  8
30
 62
     0
100
AcDbLine
 10
401.9970095741281
 20
-345.5000000000004
 30
0.0
 11
401.9970095741281
 21
-274.5000000000004
 31
0.0
  0
INSERT
  5
8879
330
8354
100
AcDbEntity
  8
30
 62
     0
100
AcDbBlockReference
  2
_OPEN
 10
401.9970095741281
 20
-347.5000000000004
 30
0.0
 41
2.0
 42
2.0
 43
2.0
 50
270.0
  0
INSERT
  5
887A
330
8354
100
AcDbEntity
  8
30
 62
     0
100
AcDbBlockReference
  2
_OPEN
 10
401.9970095741281
 20
-272.5000000000004
 30
0.0
 41
2.0
 42
2.0
 43
2.0
 50
90.0
  0
MTEXT
  5
887B
330
8354
100
AcDbEntity
  8
30
 62
     0
100
AcDbMText
 10
398.9970095741282
 20
-310.0000000000001
 30
0.0
 40
4.0
 41
0.0
 71
     5
 72
     1
  1
\A1;75
 11
0.0000000000000001
 21
1.0
 31
0.0
1001
ACAD
1000
MTEXTBEGIN
1070
    73
1070
     1
1070
    44
1040
1.0
1070
    74
1070
     0
1000
MTEXTEND
1000
MTEXTBEGIN
1070
    73
1070
     1
1070
    44
1040
1.0
1070
    74
1070
     0
1000
MTEXTEND
1000
MTEXTBEGIN
1070
    73
1070
     1
1070
    44
1040
1.0
1070
    74
1070
     0
1000
MTEXTEND
  0
POINT
  5
887C
330
8354
100
AcDbEntity
  8
DEFPOINTS
 62
     0
100
AcDbPoint
 10
340.0000000164996
 20
-347.5000000000001
 30
0.0
  0
POINT
  5
887D
330
8354
100
AcDbEntity
  8
DEFPOINTS
 62
     0
100
AcDbPoint
 10
340.0000000164996
 20
-272.5000000000001
 30
0.0
  0
POINT
  5
887E
330
8354
100
AcDbEntity
  8
DEFPOINTS
 62
     0
100
AcDbPoint
 10
401.9970095741281
 20
-272.5000000000004
 30
0.0
  0
ENDBLK
  5
835F
330
8354
100
AcDbEntity
  8
0
100
AcDbBlockEnd
  0
BLOCK
  5
836A
330
8360
100
AcDbEntity
  8
0
100
AcDbBlockBegin
  2
*D30
 70
     1
 10
0.0
 20
0.0
 30
0.0
  3
*D30
  1

  0
LINE
  5
886D
330
8360
100
AcDbEntity
  8
30
 62
     0
100
AcDbLine
 10
319.9999999999998
 20
-241.5000000165
 30
0.0
 11
319.9999999999998
 21
-292.7868080138015
 31
0.0
  0
LINE
  5
886E
330
8360
100
AcDbEntity
  8
30
 62
     0
100
AcDbLine
 10
337.4999999999999
 20
-276.0000000165002
 30
0.0
 11
337.4999999999999
 21
-292.7868080138015
 31
0.0
  0
LINE
  5
886F
330
8360
100
AcDbEntity
  8
30
 62
     0
100
AcDbLine
 10
321.9999999999998
 20
-292.2868080138013
 30
0.0
 11
335.4999999999999
 21
-292.2868080138013
 31
0.0
  0
INSERT
  5
8870
330
8360
100
AcDbEntity
  8
30
 62
     0
100
AcDbBlockReference
  2
_OPEN
 10
319.9999999999998
 20
-292.2868080138013
 30
0.0
 41
2.0
 42
2.0
 43
2.0
 50
180.0
  0
INSERT
  5
8871
330
8360
100
AcDbEntity
  8
30
 62
     0
100
AcDbBlockReference
  2
_OPEN
 10
337.4999999999999
 20
-292.2868080138013
 30
0.0
 41
2.0
 42
2.0
 43
2.0
  0
MTEXT
  5
8872
330
8360
100
AcDbEntity
  8
30
 62
     0
100
AcDbMText
 10
328.7499999999998
 20
-289.2868080138013
 30
0.0
 40
4.0
 41
0.0
 71
     5
 72
     1
  1
\A1;17.5
1001
ACAD
1000
MTEXTBEGIN
1070
    73
1070
     1
1070
    44
1040
1.0
1070
    74
1070
     0
1000
MTEXTEND
1000
MTEXTBEGIN
1070
    73
1070
     1
1070
    44
1040
1.0
1070
    74
1070
     0
1000
MTEXTEND
1000
MTEXTBEGIN
1070
    73
1070
     1
1070
    44
1040
1.0
1070
    74
1070
     0
1000
MTEXTEND
  0
POINT
  5
8873
330
8360
100
AcDbEntity
  8
DEFPOINTS
 62
     0
100
AcDbPoint
 10
319.9999999999998
 20
-240.5000000165002
 30
0.0
  0
POINT
  5
8874
330
8360
100
AcDbEntity
  8
DEFPOINTS
 62
     0
100
AcDbPoint
 10
337.4999999999999
 20
-275.0000000165002
 30
0.0
  0
POINT
  5
8875
330
8360
100
AcDbEntity
  8
DEFPOINTS
 62
     0
100
AcDbPoint
 10
337.4999999999999
 20
-292.2868080138013
 30
0.0
  0
ENDBLK
  5
836B
330
8360
100
AcDbEntity
  8
0
100
AcDbBlockEnd
  0
BLOCK
  5
8376
330
836C
100
AcDbEntity
  8
0
100
AcDbBlockBegin
  2
*D31
 70
     1
 10
0.0
 20
0.0
 30
0.0
  3
*D31
  1

  0
LINE
  5
887F
330
836C
100
AcDbEntity
  8
30
 62
     0
100
AcDbLine
 10
358.5000000164997
 20
-382.0000000000001
 30
0.0
 11
421.2470095741281
 21
-382.0000000000001
 31
0.0
  0
LINE
  5
8880
330
836C
100
AcDbEntity
  8
30
 62
     0
100
AcDbLine
 10
358.5000000164997
 20
-238.0000000000002
 30
0.0
 11
421.2470095741281
 21
-238.0000000000002
 31
0.0
  0
LINE
  5
8881
330
836C
100
AcDbEntity
  8
30
 62
     0
100
AcDbLine
 10
420.7470095741281
 20
-380.0000000000004
 30
0.0
 11
420.7470095741281
 21
-240.0000000000002
 31
0.0
  0
INSERT
  5
8882
330
836C
100
AcDbEntity
  8
30
 62
     0
100
AcDbBlockReference
  2
_OPEN
 10
420.7470095741281
 20
-382.0000000000001
 30
0.0
 41
2.0
 42
2.0
 43
2.0
 50
270.0
  0
INSERT
  5
8883
330
836C
100
AcDbEntity
  8
30
 62
     0
100
AcDbBlockReference
  2
_OPEN
 10
420.7470095741281
 20
-238.0000000000002
 30
0.0
 41
2.0
 42
2.0
 43
2.0
 50
90.0
  0
MTEXT
  5
8884
330
836C
100
AcDbEntity
  8
30
 62
     0
100
AcDbMText
 10
417.7470095741282
 20
-310.0000000000001
 30
0.0
 40
4.0
 41
0.0
 71
     5
 72
     1
  1
\A1;144
 11
0.0000000000000001
 21
1.0
 31
0.0
1001
ACAD
1000
MTEXTBEGIN
1070
    73
1070
     1
1070
    44
1040
1.0
1070
    74
1070
     0
1000
MTEXTEND
1000
MTEXTBEGIN
1070
    73
1070
     1
1070
    44
1040
1.0
1070
    74
1070
     0
1000
MTEXTEND
1000
MTEXTBEGIN
1070
    73
1070
     1
1070
    44
1040
1.0
1070
    74
1070
     0
1000
MTEXTEND
  0
POINT
  5
8885
330
836C
100
AcDbEntity
  8
DEFPOINTS
 62
     0
100
AcDbPoint
 10
357.5000000164997
 20
-382.0000000000001
 30
0.0
  0
POINT
  5
8886
330
836C
100
AcDbEntity
  8
DEFPOINTS
 62
     0
100
AcDbPoint
 10
357.5000000164997
 20
-238.0000000000002
 30
0.0
  0
POINT
  5
8887
330
836C
100
AcDbEntity
  8
DEFPOINTS
 62
     0
100
AcDbPoint
 10
420.7470095741281
 20
-238.0000000000002
 30
0.0
  0
ENDBLK
  5
8377
330
836C
100
AcDbEntity
  8
0
100
AcDbBlockEnd
  0
BLOCK
  5
83BE
330
83B7
100
AcDbEntity
  8
TOP
  6
CONTINUOUS
 62
     4
100
AcDbBlockBegin
  2
*U32
 70
     1
 10
0.0
 20
0.0
 30
0.0
  3
*U32
  1

  0
LINE
  5
83B8
330
83B7
100
AcDbEntity
  8
1
  6
BYBLOCK
 62
     0
100
AcDbLine
 10
486.4511961722488
 20
105.6647231970204
 30
0.0
 11
486.4511961722488
 21
68.9999999896
 31
0.0
  0
LINE
  5
83B9
330
83B7
100
AcDbEntity
  8
1
  6
BYBLOCK
 62
     0
100
AcDbLine
 10
493.4511961722487
 20
76.66472320362058
 30
0.0
 11
493.4511961722487
 21
68.9999999896
 31
0.0
  0
LINE
  5
83BA
330
83B7
100
AcDbEntity
  8
1
  6
BYBLOCK
 62
     0
100
AcDbLine
 10
499.7011961817488
 20
69.9999999962
 30
0.0
 11
476.7741128140463
 21
69.9999999962
 31
0.0
  0
SOLID
  5
83BB
330
83B7
100
AcDbEntity
  8
1
  6
BYBLOCK
 62
     0
100
AcDbTrace
 10
486.4511961722488
 20
69.9999999962
 30
0.0
 11
484.4511961590488
 21
69.66666666066664
 31
0.0
 12
484.4511961590488
 22
70.33333333173334
 32
0.0
 13
484.4511961590488
 23
70.33333333173334
 33
0.0
  0
SOLID
  5
83BC
330
83B7
100
AcDbEntity
  8
1
  6
BYBLOCK
 62
     0
100
AcDbTrace
 10
493.4511961722487
 20
69.9999999962
 30
0.0
 11
495.4511961854488
 21
70.33333333173334
 31
0.0
 12
495.4511961854488
 22
69.66666666066664
 32
0.0
 13
495.4511961854488
 23
69.66666666066664
 33
0.0
  0
TEXT
  5
83BD
330
83B7
100
AcDbEntity
  8
TOP
  6
BYBLOCK
 62
     0
100
AcDbText
 10
476.7741128140463
 20
71.2499999981
 30
0.0
 40
2.500000003799998
  1
17.5
 41
0.8374999999999969
  7
UGMTXT
100
AcDbText
  0
ENDBLK
  5
83BF
330
83B7
100
AcDbEntity
  8
0
100
AcDbBlockEnd
  0
BLOCK
  5
83DB
330
83D6
100
AcDbEntity
  8
TOP
  6
CONTINUOUS
 62
     3
100
AcDbBlockBegin
  2
*U33
 70
     1
 10
0.0
 20
0.0
 30
0.0
  3
*U33
  1

  0
LINE
  5
83D7
330
83D6
100
AcDbEntity
  8
1
  6
BYBLOCK
 62
     0
100
AcDbLine
 10
548.3527638488361
 20
74.64070630641497
 30
0.0
 11
522.3527638488361
 21
74.64070630641497
 31
0.0
  0
LINE
  5
83D8
330
83D6
100
AcDbEntity
  8
1
  6
BYBLOCK
 62
     0
100
AcDbLine
 10
517.8511961722488
 20
100.6647232036204
 30
0.0
 11
522.3527638488361
 21
74.64070630641497
 31
0.0
  0
SOLID
  5
83D9
330
83D6
100
AcDbEntity
  8
1
  6
BYBLOCK
 62
     0
100
AcDbTrace
 10
517.8511961722488
 20
100.6647232036204
 30
0.0
 11
518.5205443376235
 21
98.75080465810007
 31
0.0
 12
517.8636330166235
 22
98.63717382314177
 32
0.0
 13
517.8636330166235
 23
98.63717382314177
 33
0.0
  0
TEXT
  5
83DA
330
83D6
100
AcDbEntity
  8
TOP
  6
BYBLOCK
 62
     0
100
AcDbText
 10
548.3527638488361
 20
73.14070629651499
 30
0.0
 40
3.000000019799997
  1
 
 41
1.189062500000023
  7
UGMTXT
100
AcDbText
  0
ENDBLK
  5
83DC
330
83D6
100
AcDbEntity
  8
0
100
AcDbBlockEnd
  0
BLOCK
  5
8543
330
8539
100
AcDbEntity
  8
0
100
AcDbBlockBegin
  2
*D34
 70
     1
 10
0.0
 20
0.0
 30
0.0
  3
*D34
  1

  0
LINE
  5
8847
330
8539
100
AcDbEntity
  8
30
 62
     0
100
AcDbLine
 10
45.00000000000023
 20
-336.0
 30
0.0
 11
45.00000000000023
 21
-439.6618080185514
 31
0.0
  0
LINE
  5
8848
330
8539
100
AcDbEntity
  8
30
 62
     0
100
AcDbLine
 10
59.99999999999978
 20
-336.0
 30
0.0
 11
59.99999999999978
 21
-439.6618080185514
 31
0.0
  0
LINE
  5
8849
330
8539
100
AcDbEntity
  8
30
 62
     0
100
AcDbLine
 10
47.00000000000023
 20
-439.1618080185514
 30
0.0
 11
57.99999999999978
 21
-439.1618080185514
 31
0.0
  0
INSERT
  5
884A
330
8539
100
AcDbEntity
  8
30
 62
     0
100
AcDbBlockReference
  2
_OPEN
 10
45.00000000000023
 20
-439.1618080185514
 30
0.0
 41
2.0
 42
2.0
 43
2.0
 50
180.0
  0
INSERT
  5
884B
330
8539
100
AcDbEntity
  8
30
 62
     0
100
AcDbBlockReference
  2
_OPEN
 10
59.99999999999978
 20
-439.1618080185514
 30
0.0
 41
2.0
 42
2.0
 43
2.0
  0
MTEXT
  5
884C
330
8539
100
AcDbEntity
  8
30
 62
     0
100
AcDbMText
 10
52.5
 20
-436.1618080185514
 30
0.0
 40
4.0
 41
0.0
 71
     5
 72
     1
  1
\A1;15
1001
ACAD
1000
MTEXTBEGIN
1070
    73
1070
     1
1070
    44
1040
1.0
1070
    74
1070
     0
1000
MTEXTEND
1000
MTEXTBEGIN
1070
    73
1070
     1
1070
    44
1040
1.0
1070
    74
1070
     0
1000
MTEXTEND
1000
MTEXTBEGIN
1070
    73
1070
     1
1070
    44
1040
1.0
1070
    74
1070
     0
1000
MTEXTEND
  0
POINT
  5
884D
330
8539
100
AcDbEntity
  8
DEFPOINTS
 62
     0
100
AcDbPoint
 10
45.00000000000023
 20
-335.0
 30
0.0
  0
POINT
  5
884E
330
8539
100
AcDbEntity
  8
DEFPOINTS
 62
     0
100
AcDbPoint
 10
59.99999999999978
 20
-335.0
 30
0.0
  0
POINT
  5
884F
330
8539
100
AcDbEntity
  8
DEFPOINTS
 62
     0
100
AcDbPoint
 10
59.99999999999978
 20
-439.1618080185514
 30
0.0
  0
ENDBLK
  5
8544
330
8539
100
AcDbEntity
  8
0
100
AcDbBlockEnd
  0
BLOCK
  5
854F
330
8545
100
AcDbEntity
  8
0
100
AcDbBlockBegin
  2
*D35
 70
     1
 10
0.0
 20
0.0
 30
0.0
  3
*D35
  1

  0
LINE
  5
883E
330
8545
100
AcDbEntity
  8
30
 62
     0
100
AcDbLine
 10
-17.49999999999976
 20
-351.0000000165001
 30
0.0
 11
-17.49999999999976
 21
-458.4118080185515
 31
0.0
  0
LINE
  5
883F
330
8545
100
AcDbEntity
  8
30
 62
     0
100
AcDbLine
 10
52.49999999999978
 20
-351.0000000165001
 30
0.0
 11
52.49999999999978
 21
-458.4118080185515
 31
0.0
  0
LINE
  5
8840
330
8545
100
AcDbEntity
  8
30
 62
     0
100
AcDbLine
 10
-15.49999999999974
 20
-457.9118080185515
 30
0.0
 11
50.49999999999978
 21
-457.9118080185515
 31
0.0
  0
INSERT
  5
8841
330
8545
100
AcDbEntity
  8
30
 62
     0
100
AcDbBlockReference
  2
_OPEN
 10
-17.49999999999976
 20
-457.9118080185515
 30
0.0
 41
2.0
 42
2.0
 43
2.0
 50
180.0
  0
INSERT
  5
8842
330
8545
100
AcDbEntity
  8
30
 62
     0
100
AcDbBlockReference
  2
_OPEN
 10
52.49999999999978
 20
-457.9118080185515
 30
0.0
 41
2.0
 42
2.0
 43
2.0
  0
MTEXT
  5
8843
330
8545
100
AcDbEntity
  8
30
 62
     0
100
AcDbMText
 10
17.5
 20
-454.9118080185515
 30
0.0
 40
4.0
 41
0.0
 71
     5
 72
     1
  1
\A1;70
1001
ACAD
1000
MTEXTBEGIN
1070
    73
1070
     1
1070
    44
1040
1.0
1070
    74
1070
     0
1000
MTEXTEND
1000
MTEXTBEGIN
1070
    73
1070
     1
1070
    44
1040
1.0
1070
    74
1070
     0
1000
MTEXTEND
1000
MTEXTBEGIN
1070
    73
1070
     1
1070
    44
1040
1.0
1070
    74
1070
     0
1000
MTEXTEND
  0
POINT
  5
8844
330
8545
100
AcDbEntity
  8
DEFPOINTS
 62
     0
100
AcDbPoint
 10
-17.49999999999976
 20
-350.0000000165001
 30
0.0
  0
POINT
  5
8845
330
8545
100
AcDbEntity
  8
DEFPOINTS
 62
     0
100
AcDbPoint
 10
52.49999999999978
 20
-350.0000000165001
 30
0.0
  0
POINT
  5
8846
330
8545
100
AcDbEntity
  8
DEFPOINTS
 62
     0
100
AcDbPoint
 10
52.49999999999978
 20
-457.9118080185515
 30
0.0
  0
ENDBLK
  5
8550
330
8545
100
AcDbEntity
  8
0
100
AcDbBlockEnd
  0
BLOCK
  5
855B
330
8551
100
AcDbEntity
  8
0
100
AcDbBlockBegin
  2
*D36
 70
     1
 10
0.0
 20
0.0
 30
0.0
  3
*D36
  1

  0
LINE
  5
8835
330
8551
100
AcDbEntity
  8
30
 62
     0
100
AcDbLine
 10
60.99999999999979
 20
-335.0
 30
0.0
 11
101.2470095741279
 21
-335.0
 31
0.0
  0
LINE
  5
8836
330
8551
100
AcDbEntity
  8
30
 62
     0
100
AcDbLine
 10
60.99999999999979
 20
-285.0
 30
0.0
 11
101.2470095741279
 21
-285.0
 31
0.0
  0
LINE
  5
8837
330
8551
100
AcDbEntity
  8
30
 62
     0
100
AcDbLine
 10
100.747009574128
 20
-333.0
 30
0.0
 11
100.747009574128
 21
-287.0
 31
0.0
  0
INSERT
  5
8838
330
8551
100
AcDbEntity
  8
30
 62
     0
100
AcDbBlockReference
  2
_OPEN
 10
100.747009574128
 20
-335.0
 30
0.0
 41
2.0
 42
2.0
 43
2.0
 50
270.0
  0
INSERT
  5
8839
330
8551
100
AcDbEntity
  8
30
 62
     0
100
AcDbBlockReference
  2
_OPEN
 10
100.747009574128
 20
-285.0
 30
0.0
 41
2.0
 42
2.0
 43
2.0
 50
90.0
  0
MTEXT
  5
883A
330
8551
100
AcDbEntity
  8
30
 62
     0
100
AcDbMText
 10
97.74700957412807
 20
-310.0
 30
0.0
 40
4.0
 41
0.0
 71
     5
 72
     1
  1
\A1;50
 11
0.0000000000000001
 21
1.0
 31
0.0
1001
ACAD
1000
MTEXTBEGIN
1070
    73
1070
     1
1070
    44
1040
1.0
1070
    74
1070
     0
1000
MTEXTEND
1000
MTEXTBEGIN
1070
    73
1070
     1
1070
    44
1040
1.0
1070
    74
1070
     0
1000
MTEXTEND
1000
MTEXTBEGIN
1070
    73
1070
     1
1070
    44
1040
1.0
1070
    74
1070
     0
1000
MTEXTEND
  0
POINT
  5
883B
330
8551
100
AcDbEntity
  8
DEFPOINTS
 62
     0
100
AcDbPoint
 10
59.99999999999978
 20
-335.0
 30
0.0
  0
POINT
  5
883C
330
8551
100
AcDbEntity
  8
DEFPOINTS
 62
     0
100
AcDbPoint
 10
59.99999999999978
 20
-285.0
 30
0.0
  0
POINT
  5
883D
330
8551
100
AcDbEntity
  8
DEFPOINTS
 62
     0
100
AcDbPoint
 10
100.747009574128
 20
-285.0
 30
0.0
  0
ENDBLK
  5
855C
330
8551
100
AcDbEntity
  8
0
100
AcDbBlockEnd
  0
BLOCK
  5
8567
330
855D
100
AcDbEntity
  8
0
100
AcDbBlockBegin
  2
*D37
 70
     1
 10
0.0
 20
0.0
 30
0.0
  3
*D37
  1

  0
LINE
  5
88AB
330
855D
100
AcDbEntity
  8
30
 62
     0
100
AcDbLine
 10
56.00000001649984
 20
-347.5000000000001
 30
0.0
 11
120.747009574128
 21
-347.5000000000001
 31
0.0
  0
LINE
  5
88AC
330
855D
100
AcDbEntity
  8
30
 62
     0
100
AcDbLine
 10
56.00000001649984
 20
-272.5
 30
0.0
 11
120.747009574128
 21
-272.5
 31
0.0
  0
LINE
  5
88AD
330
855D
100
AcDbEntity
  8
30
 62
     0
100
AcDbLine
 10
120.2470095741279
 20
-345.5000000000001
 30
0.0
 11
120.2470095741279
 21
-274.5
 31
0.0
  0
INSERT
  5
88AE
330
855D
100
AcDbEntity
  8
30
 62
     0
100
AcDbBlockReference
  2
_OPEN
 10
120.2470095741279
 20
-347.5000000000001
 30
0.0
 41
2.0
 42
2.0
 43
2.0
 50
270.0
  0
INSERT
  5
88AF
330
855D
100
AcDbEntity
  8
30
 62
     0
100
AcDbBlockReference
  2
_OPEN
 10
120.2470095741279
 20
-272.5
 30
0.0
 41
2.0
 42
2.0
 43
2.0
 50
90.0
  0
MTEXT
  5
88B0
330
855D
100
AcDbEntity
  8
30
 62
     0
100
AcDbMText
 10
117.247009574128
 20
-310.0000000000001
 30
0.0
 40
4.0
 41
0.0
 71
     5
 72
     1
  1
\A1;75
 11
0.0000000000000001
 21
1.0
 31
0.0
1001
ACAD
1000
MTEXTBEGIN
1070
    73
1070
     1
1070
    44
1040
1.0
1070
    74
1070
     0
1000
MTEXTEND
1000
MTEXTBEGIN
1070
    73
1070
     1
1070
    44
1040
1.0
1070
    74
1070
     0
1000
MTEXTEND
1000
MTEXTBEGIN
1070
    73
1070
     1
1070
    44
1040
1.0
1070
    74
1070
     0
1000
MTEXTEND
  0
POINT
  5
88B1
330
855D
100
AcDbEntity
  8
DEFPOINTS
 62
     0
100
AcDbPoint
 10
55.00000001649985
 20
-347.5000000000001
 30
0.0
  0
POINT
  5
88B2
330
855D
100
AcDbEntity
  8
DEFPOINTS
 62
     0
100
AcDbPoint
 10
55.00000001649985
 20
-272.5
 30
0.0
  0
POINT
  5
88B3
330
855D
100
AcDbEntity
  8
DEFPOINTS
 62
     0
100
AcDbPoint
 10
120.2470095741279
 20
-272.5
 30
0.0
  0
ENDBLK
  5
8568
330
855D
100
AcDbEntity
  8
0
100
AcDbBlockEnd
  0
ENDSEC
  0
SECTION
  2
ENTITIES
  0
MTEXT
  5
BF3
330
1E
100
AcDbEntity
  8
24
  6
CONTINUOUS
100
AcDbMText
 10
142.1181906098743
 20
177.5
 30
0.0
 40
3.0
 41
0.0
 71
     1
 72
     1
  1
\A1;
1001
ACAD
1000
MTEXTBEGIN
1070
    73
1070
     1
1070
    44
1040
1.0
1070
    74
1070
     0
1000
MTEXTEND
1000
MTEXTBEGIN
1070
    73
1070
     1
1070
    44
1040
1.0
1070
    74
1070
     0
1000
MTEXTEND
1000
MTEXTBEGIN
1070
    73
1070
     1
1070
    44
1040
1.0
1070
    74
1070
     0
1000
MTEXTEND
  0
TEXT
  5
BF4
330
1E
100
AcDbEntity
  8
30
100
AcDbText
 10
321.0978220781311
 20
-287.3032880643961
 30
0.0
 40
4.0
  1
%%C9
100
AcDbText
  0
LINE
  5
2260
330
1E
100
AcDbEntity
  8
16
100
AcDbLine
 10
127.2641627211668
 20
-310.0
 30
0.0
 11
-61.60868885537138
 21
-310.0
 31
0.0
  0
LINE
  5
2261
330
1E
100
AcDbEntity
  8
16
100
AcDbLine
 10
0.0
 20
-446.0
 30
0.0
 11
0.0
 21
-177.2499999999799
 31
0.0
  0
MTEXT
  5
4B2E
330
1E
100
AcDbEntity
  8
30
  6
CONTINUOUS
 62
     2
100
AcDbMText
 10
268.061460244221
 20
-10.61653703766022
 30
0.0
 40
4.0
 41
0.0
 71
     1
 72
     1
  1
 
1001
ACAD
1000
MTEXTBEGIN
1070
    73
1070
     1
1070
    44
1040
1.0
1070
    74
1070
     0
1000
MTEXTEND
1000
MTEXTBEGIN
1070
    73
1070
     1
1070
    44
1040
1.0
1070
    74
1070
     0
1000
MTEXTEND
1000
MTEXTBEGIN
1070
    73
1070
     1
1070
    44
1040
1.0
1070
    74
1070
     0
1000
MTEXTEND
  0
LWPOLYLINE
  5
5803
330
1E
100
AcDbEntity
  8
16
100
AcDbPolyline
 90
        2
 70
     0
 43
0.001
 10
0.0
 20
109.9505615234199
 10
0.0
 20
-121.91400146485
  0
LINE
  5
5938
330
1E
100
AcDbEntity
  8
16
100
AcDbLine
 10
99.58329095406677
 20
0.0
 30
0.0
 11
-78.17658291715568
 21
0.0
 31
0.0
  0
LINE
  5
5E0A
330
1E
100
AcDbEntity
  8
16
100
AcDbLine
 10
368.5913216207949
 20
0.0
 30
0.0
 11
190.8314477495724
 21
0.0
 31
0.0
  0
LINE
  5
74E8
330
1E
100
AcDbEntity
  8
10
100
AcDbLine
 10
222.5000024087779
 20
-276.1995602916448
 30
0.0
 11
222.5000024087779
 21
-288.9999893631534
 31
0.0
  0
ARC
  5
74E9
330
1E
100
AcDbEntity
  8
18
100
AcDbCircle
 10
206.5000054214873
 20
-282.4999970606936
 30
0.0
 40
5.999999308398423
100
AcDbArc
 50
180.0
 51
270.0
  0
LINE
  5
74EA
330
1E
100
AcDbEntity
  8
10
100
AcDbLine
 10
197.0
 20
-257.0
 30
0.0
 11
197.0
 21
-290.9999881489083
 31
0.0
  0
LINE
  5
74EB
330
1E
100
AcDbEntity
  8
10
100
AcDbLine
 10
189.5000103321588
 20
-290.4999823966385
 30
0.0
 11
189.5000103321588
 21
-256.5753477363017
 31
0.0
  0
INSERT
  5
74ED
330
1E
100
AcDbEntity
  8
30
100
AcDbBlockReference
  2
*U4
 10
-173.7352011726184
 20
-765.8823475359051
 30
0.0
 41
1.66666647455514
 42
1.666666474555085
 43
1.666666474555118
  0
INSERT
  5
74EE
330
1E
100
AcDbEntity
  8
30
100
AcDbBlockReference
  2
*U3
 10
-173.7352011726184
 20
-765.8823475359051
 30
0.0
 41
1.66666647455514
 42
1.666666474555085
 43
1.666666474555118
  0
INSERT
  5
74EF
330
1E
100
AcDbEntity
  8
30
100
AcDbBlockReference
  2
*U5
 10
-173.7352011726184
 20
-765.8823475359051
 30
0.0
 41
1.66666647455514
 42
1.666666474555085
 43
1.666666474555118
  0
TEXT
  5
74F0
330
1E
100
AcDbEntity
  8
30
100
AcDbText
 10
229.8975648018664
 20
-315.8823994060231
 30
0.0
 40
4.166666186387795
  1
M8 nut
 41
0.8216911764705923
  7
UGMTXT
100
AcDbText
  0
LINE
  5
74F1
330
1E
100
AcDbEntity
  8
10
100
AcDbLine
 10
186.5000000418639
 20
-291.0074489328485
 30
0.0
 11
177.5000176176288
 21
-291.0074489328485
 31
0.0
  0
LINE
  5
74F2
330
1E
100
AcDbEntity
  8
10
100
AcDbLine
 10
190.0000039727664
 20
-290.9999881489083
 30
0.0
 11
176.500006113089
 21
-290.9999881489083
 31
0.0
  0
LINE
  5
74F3
330
1E
100
AcDbEntity
  8
10
100
AcDbLine
 10
176.500006113089
 20
-290.6112522376409
 30
0.0
 11
176.500006113089
 21
-290.4999823966385
 31
0.0
  0
LINE
  5
74F4
330
1E
100
AcDbEntity
  8
10
100
AcDbLine
 10
176.500006113089
 20
-290.8908984071091
 30
0.0
 11
176.500006113089
 21
-290.8117365827059
 31
0.0
  0
LINE
  5
74F5
330
1E
100
AcDbEntity
  8
10
100
AcDbLine
 10
176.500006113089
 20
-288.9999893631534
 30
0.0
 11
176.500006113089
 21
-290.4999823966385
 31
0.0
  0
LINE
  5
74F6
330
1E
100
AcDbEntity
  8
10
100
AcDbLine
 10
177.0845876027836
 20
-291.0079091760136
 30
0.0
 11
177.2182761305931
 21
-291.0076548311065
 31
0.0
  0
LINE
  5
74F7
330
1E
100
AcDbEntity
  8
10
100
AcDbLine
 10
176.500006113089
 20
-290.9999881489083
 30
0.0
 11
176.500006113089
 21
-290.9874525784895
 31
0.0
  0
LINE
  5
74F8
330
1E
100
AcDbEntity
  8
10
100
AcDbLine
 10
176.9593772385425
 20
-291.0082483025561
 30
0.0
 11
177.0845876027836
 21
-291.0079091760136
 31
0.0
  0
LINE
  5
74F9
330
1E
100
AcDbEntity
  8
10
100
AcDbLine
 10
176.500006113089
 20
-290.7169264906883
 30
0.0
 11
176.500006113089
 21
-290.6112522376409
 31
0.0
  0
LINE
  5
74FA
330
1E
100
AcDbEntity
  8
10
100
AcDbLine
 10
176.500006113089
 20
-290.9999881489083
 30
0.0
 11
176.500006113089
 21
-291.0124268260294
 31
0.0
  0
LINE
  5
74FB
330
1E
100
AcDbEntity
  8
10
100
AcDbLine
 10
176.500006113089
 20
-290.9504756736696
 30
0.0
 11
176.500006113089
 21
-290.8908984071091
 31
0.0
  0
LINE
  5
74FC
330
1E
100
AcDbEntity
  8
10
100
AcDbLine
 10
176.5903833367269
 20
-291.0103678434481
 30
0.0
 11
176.6587657817362
 21
-291.0097380370118
 31
0.0
  0
LINE
  5
74FD
330
1E
100
AcDbEntity
  8
10
100
AcDbLine
 10
176.6587657817362
 20
-291.0097380370118
 30
0.0
 11
176.7442498938289
 21
-291.0091687888865
 31
0.0
  0
LINE
  5
74FE
330
1E
100
AcDbEntity
  8
10
100
AcDbLine
 10
176.500006113089
 20
-291.0124268260294
 30
0.0
 11
176.510179909371
 21
-291.0117243496192
 31
0.0
  0
LINE
  5
74FF
330
1E
100
AcDbEntity
  8
10
100
AcDbLine
 10
176.8451400402914
 20
-291.0086722107346
 30
0.0
 11
176.9593772385425
 21
-291.0082483025561
 31
0.0
  0
LINE
  5
7500
330
1E
100
AcDbEntity
  8
10
100
AcDbLine
 10
176.510179909371
 20
-291.0117243496192
 30
0.0
 11
176.540507511621
 21
-291.0110339848714
 31
0.0
  0
LINE
  5
7501
330
1E
100
AcDbEntity
  8
10
100
AcDbLine
 10
176.7442498938289
 20
-291.0091687888865
 30
0.0
 11
176.8451400402914
 21
-291.0086722107346
 31
0.0
  0
LINE
  5
7502
330
1E
100
AcDbEntity
  8
10
100
AcDbLine
 10
177.2182761305931
 20
-291.0076548311065
 30
0.0
 11
177.3577055863044
 21
-291.0075094911595
 31
0.0
  0
LINE
  5
7503
330
1E
100
AcDbEntity
  8
10
100
AcDbLine
 10
177.3577055863044
 20
-291.0075094911595
 30
0.0
 11
177.5000176176288
 21
-291.0074489328485
 31
0.0
  0
LINE
  5
7504
330
1E
100
AcDbEntity
  8
10
100
AcDbLine
 10
176.500006113089
 20
-290.9874525784895
 30
0.0
 11
176.500006113089
 21
-290.9504756736696
 31
0.0
  0
LINE
  5
7505
330
1E
100
AcDbEntity
  8
10
100
AcDbLine
 10
176.500006113089
 20
-290.8117365827059
 30
0.0
 11
176.500006113089
 21
-290.7169264906883
 31
0.0
  0
LINE
  5
7506
330
1E
100
AcDbEntity
  8
10
100
AcDbLine
 10
176.540507511621
 20
-291.0110339848714
 30
0.0
 11
176.5903833367269
 21
-291.0103678434481
 31
0.0
  0
LINE
  5
7507
330
1E
100
AcDbEntity
  8
10
100
AcDbLine
 10
176.500006113089
 20
-291.2180289567651
 30
0.0
 11
176.500006113089
 21
-291.0124268260294
 31
0.0
  0
LINE
  5
7508
330
1E
100
AcDbEntity
  8
10
100
AcDbLine
 10
176.500006113089
 20
-288.9999893631534
 30
0.0
 11
174.4414377242035
 21
-288.9999893631534
 31
0.0
  0
LINE
  5
7509
330
1E
100
AcDbEntity
  8
10
100
AcDbLine
 10
222.0000087681703
 20
-290.9999881489083
 30
0.0
 11
190.0000039727664
 21
-290.9999881489083
 31
0.0
  0
LINE
  5
750A
330
1E
100
AcDbEntity
  8
10
100
AcDbLine
 10
186.5000000418639
 20
-290.9999881489083
 30
0.0
 11
186.5000000418639
 21
-291.0074489328485
 31
0.0
  0
LINE
  5
750B
330
1E
100
AcDbEntity
  8
10
100
AcDbLine
 10
186.5000000418639
 20
-291.0074489328485
 30
0.0
 11
186.5000000418639
 21
-291.2180289567651
 31
0.0
  0
ARC
  5
750C
330
1E
100
AcDbEntity
  8
10
100
AcDbCircle
 10
190.0000039727664
 20
-290.4999823966385
 30
0.0
 40
0.4999999329946449
100
AcDbArc
 50
180.0
 51
270.0
  0
ARC
  5
750D
330
1E
100
AcDbEntity
  8
0
100
AcDbCircle
 10
222.0000087681703
 20
-290.4999823966385
 30
0.0
 40
0.4999999329946449
100
AcDbArc
 50
270.0
 51
0.0
  0
LINE
  5
750E
330
1E
100
AcDbEntity
  8
0
100
AcDbLine
 10
222.5000024087779
 20
-288.9999893631534
 30
0.0
 11
222.5000024087779
 21
-290.4999823966385
 31
0.0
  0
TEXT
  5
750F
330
1E
100
AcDbEntity
  8
30
100
AcDbText
 10
246.822476045428
 20
-299.2157346604719
 30
0.0
 40
4.166666186387795
  1
22 max. conductor width
 41
0.7999540441176404
  7
UGMTXT
100
AcDbText
  0
INSERT
  5
7510
330
1E
100
AcDbEntity
  8
30
100
AcDbBlockReference
  2
*U2
 10
-173.7352011726184
 20
-765.8823475359051
 30
0.0
 41
1.66666647455514
 42
1.666666474555085
 43
1.666666474555118
  0
LINE
  5
7511
330
1E
100
AcDbEntity
  8
18
100
AcDbLine
 10
206.5000054214873
 20
-260.499999596566
 30
0.0
 11
250.5000003497426
 21
-260.499999596566
 31
0.0
  0
LINE
  5
7512
330
1E
100
AcDbEntity
  8
18
100
AcDbLine
 10
206.5000054214873
 20
-285.4999967148929
 30
0.0
 11
250.5000003497426
 21
-285.4999967148929
 31
0.0
  0
LINE
  5
7513
330
1E
100
AcDbEntity
  8
18
100
AcDbLine
 10
206.5000054214873
 20
-288.4999963690919
 30
0.0
 11
250.5000003497426
 21
-288.4999963690919
 31
0.0
  0
LINE
  5
7514
330
1E
100
AcDbEntity
  8
18
100
AcDbLine
 10
206.5000054214873
 20
-257.4999999423669
 30
0.0
 11
250.5000003497426
 21
-257.4999999423669
 31
0.0
  0
DIMENSION
  5
7515
330
1E
100
AcDbEntity
  8
30
100
AcDbDimension
  2
*D6
 10
200.500006113089
 20
-234.632408774628
 30
0.0
 11
198.0000064012563
 21
-231.632408774628
 31
0.0
 70
    32
  3
STANDARD
100
AcDbAlignedDimension
 13
195.5000066894235
 23
-250.3055065238225
 33
0.0
 14
200.500006113089
 24
-263.4999992507652
 34
0.0
100
AcDbRotatedDimension
  0
DIMENSION
  5
7516
330
1E
100
AcDbEntity
  8
30
100
AcDbDimension
  2
*D7
 10
222.5000087011648
 20
-234.632408774628
 30
0.0
 11
209.0000076952942
 21
-231.632408774628
 31
0.0
 70
    32
  3
STANDARD
100
AcDbAlignedDimension
 13
195.5000066894235
 23
-250.3055065238225
 33
0.0
 14
222.5000087011648
 24
-253.8333250487091
 34
0.0
100
AcDbRotatedDimension
  0
LINE
  5
7517
330
1E
100
AcDbEntity
  8
12
100
AcDbLine
 10
207.1000053523273
 20
-265.799998985651
 30
0.0
 11
213.900004568512
 21
-265.799998985651
 31
0.0
  0
LINE
  5
7518
330
1E
100
AcDbEntity
  8
12
100
AcDbLine
 10
213.9000045685119
 20
-269.5527753028126
 30
0.0
 11
207.1000053523272
 21
-269.5527753028126
 31
0.0
  0
LINE
  5
7519
330
1E
100
AcDbEntity
  8
12
100
AcDbLine
 10
213.9000045685119
 20
-276.4472210086458
 30
0.0
 11
207.1000053523272
 21
-276.4472210086458
 31
0.0
  0
LINE
  5
751A
330
1E
100
AcDbEntity
  8
12
100
AcDbLine
 10
207.1000053523273
 20
-280.1999973258073
 30
0.0
 11
213.900004568512
 21
-280.1999973258073
 31
0.0
  0
LINE
  5
751B
330
1E
100
AcDbEntity
  8
10
100
AcDbLine
 10
222.5000024087779
 20
-257.0
 30
0.0
 11
195.5000066894237
 21
-257.0
 31
0.0
  0
LINE
  5
751C
330
1E
100
AcDbEntity
  8
10
100
AcDbLine
 10
195.5000066894237
 20
-254.9999978936569
 30
0.0
 11
222.0000087681703
 21
-254.9999978936569
 31
0.0
  0
LINE
  5
751E
330
1E
100
AcDbEntity
  8
10
100
AcDbLine
 10
197.4999999423664
 20
-264.4999918800649
 30
0.0
 11
197.4999999423664
 21
-272.9999909002958
 31
0.0
  0
LINE
  5
751F
330
1E
100
AcDbEntity
  8
12
100
AcDbLine
 10
200.4999995965655
 20
-264.9999918224313
 30
0.0
 11
200.4999995965655
 21
-280.9999899781605
 31
0.0
  0
LINE
  5
7520
330
1E
100
AcDbEntity
  8
12
100
AcDbLine
 10
198.6499998098094
 20
-264.9999918224313
 30
0.0
 11
198.6499998098094
 21
-280.9999899781605
 31
0.0
  0
LINE
  5
7522
330
1E
100
AcDbEntity
  8
12
100
AcDbLine
 10
205.1000055828609
 20
-264.4999991354984
 30
0.0
 11
205.1000055828609
 21
-281.4999971759604
 31
0.0
  0
LINE
  5
7523
330
1E
100
AcDbEntity
  8
0
100
AcDbLine
 10
203.5000057672883
 20
-263.4999992507652
 30
0.0
 11
203.5000057672883
 21
-282.4999970606936
 31
0.0
  0
LINE
  5
7524
330
1E
100
AcDbEntity
  8
12
100
AcDbLine
 10
207.1000053523273
 20
-265.2999990432846
 30
0.0
 11
207.1000053523273
 21
-280.6999972681742
 31
0.0
  0
LINE
  5
7525
330
1E
100
AcDbEntity
  8
12
100
AcDbLine
 10
203.5000057672882
 20
-264.4999991354984
 30
0.0
 11
203.5000057672882
 21
-281.4999971759604
 31
0.0
  0
LINE
  5
7527
330
1E
100
AcDbEntity
  8
10
100
AcDbLine
 10
197.4999999423664
 20
-272.9999909002958
 30
0.0
 11
197.4999999423664
 21
-281.4999899205271
 31
0.0
  0
LINE
  5
7528
330
1E
100
AcDbEntity
  8
12
100
AcDbLine
 10
197.4999999423664
 20
-280.5999900242673
 30
0.0
 11
198.6499998098094
 21
-280.5999900242673
 31
0.0
  0
LINE
  5
7529
330
1E
100
AcDbEntity
  8
12
100
AcDbLine
 10
198.6499998098094
 20
-280.9999899781605
 30
0.0
 11
200.4999995965655
 21
-280.9999899781605
 31
0.0
  0
LINE
  5
752A
330
1E
100
AcDbEntity
  8
0
100
AcDbLine
 10
200.500006113089
 20
-280.999997233594
 30
0.0
 11
200.500006113089
 21
-282.4999970606936
 31
0.0
  0
LINE
  5
752B
330
1E
100
AcDbEntity
  8
10
100
AcDbLine
 10
197.4999999423664
 20
-281.4999899205271
 30
0.0
 11
196.9999375000071
 21
-281.4999899205271
 31
0.0
  0
LINE
  5
752C
330
1E
100
AcDbEntity
  8
12
100
AcDbLine
 10
203.5000057672882
 20
-281.4999971759604
 30
0.0
 11
205.1000055828609
 21
-281.4999971759604
 31
0.0
  0
LINE
  5
752D
330
1E
100
AcDbEntity
  8
12
100
AcDbLine
 10
205.1000055828609
 20
-280.6999972681742
 30
0.0
 11
207.1000053523273
 21
-280.6999972681742
 31
0.0
  0
ARC
  5
752E
330
1E
100
AcDbEntity
  8
18
100
AcDbCircle
 10
206.5000054214873
 20
-282.4999970606936
 30
0.0
 40
2.999999654199211
100
AcDbArc
 50
180.0
 51
270.0
  0
LINE
  5
752F
330
1E
100
AcDbEntity
  8
12
100
AcDbLine
 10
207.1000053523273
 20
-272.2499982421795
 30
0.0
 11
205.1000055828609
 21
-274.2499980116456
 31
0.0
  0
LINE
  5
7530
330
1E
100
AcDbEntity
  8
12
100
AcDbLine
 10
207.1000053523273
 20
-271.7499982998131
 30
0.0
 11
205.1000055828609
 21
-273.749998069279
 31
0.0
  0
LINE
  5
7534
330
1E
100
AcDbEntity
  8
10
100
AcDbLine
 10
187.6582021495805
 20
-258.4999897128966
 30
0.0
 11
189.5000103321588
 21
-258.4999897128966
 31
0.0
  0
ARC
  5
7535
330
1E
100
AcDbEntity
  8
18
100
AcDbCircle
 10
206.5000054214873
 20
-263.4999992507652
 30
0.0
 40
5.999999308398423
100
AcDbArc
 50
90.0
 51
180.0
  0
LINE
  5
7536
330
1E
100
AcDbEntity
  8
12
100
AcDbLine
 10
198.6499998098094
 20
-265.3999917763245
 30
0.0
 11
197.4999999423664
 21
-265.3999917763245
 31
0.0
  0
LINE
  5
7537
330
1E
100
AcDbEntity
  8
12
100
AcDbLine
 10
200.4999995965655
 20
-264.9999918224313
 30
0.0
 11
198.6499998098094
 21
-264.9999918224313
 31
0.0
  0
LINE
  5
7538
330
1E
100
AcDbEntity
  8
12
100
AcDbLine
 10
200.500006113089
 20
-263.4999992507652
 30
0.0
 11
200.500006113089
 21
-265.9999989625979
 31
0.0
  0
LINE
  5
7539
330
1E
100
AcDbEntity
  8
10
100
AcDbLine
 10
197.4999999423664
 20
-264.4999918800649
 30
0.0
 11
196.9999375000071
 21
-264.4999918800649
 31
0.0
  0
LINE
  5
753A
330
1E
100
AcDbEntity
  8
12
100
AcDbLine
 10
203.5000057672882
 20
-264.4999991354984
 30
0.0
 11
205.1000055828609
 21
-264.4999991354984
 31
0.0
  0
ARC
  5
753B
330
1E
100
AcDbEntity
  8
18
100
AcDbCircle
 10
206.5000054214873
 20
-263.4999992507652
 30
0.0
 40
2.999999654199211
100
AcDbArc
 50
90.0
 51
180.0
  0
LINE
  5
753C
330
1E
100
AcDbEntity
  8
12
100
AcDbLine
 10
205.1000055828609
 20
-265.2999990432846
 30
0.0
 11
207.1000053523273
 21
-265.2999990432846
 31
0.0
  0
LINE
  5
753D
330
1E
100
AcDbEntity
  8
10
100
AcDbLine
 10
195.5000066894237
 20
-250.3055065238225
 30
0.0
 11
195.5000066894237
 21
-257.0
 31
0.0
  0
LINE
  5
753E
330
1E
100
AcDbEntity
  8
10
100
AcDbLine
 10
222.5000024087779
 20
-256.4999909271416
 30
0.0
 11
222.5000024087779
 21
-269.8001074746039
 31
0.0
  0
LINE
  5
753F
330
1E
100
AcDbEntity
  8
12
100
AcDbLine
 10
213.900004568512
 20
-265.799998985651
 30
0.0
 11
213.900004568512
 21
-280.1999973258073
 31
0.0
  0
LINE
  5
7540
330
1E
100
AcDbEntity
  8
12
100
AcDbLine
 10
213.8998109775694
 20
-276.1999905314419
 30
0.0
 11
226.075427664744
 21
-276.1999905314419
 31
0.0
  0
LINE
  5
7541
330
1E
100
AcDbEntity
  8
12
100
AcDbLine
 10
226.075427664744
 20
-269.7999912691501
 30
0.0
 11
213.8998109775694
 21
-269.7999912691501
 31
0.0
  0
ARC
  5
7542
330
1E
100
AcDbEntity
  8
12
100
AcDbCircle
 10
220.9999972335936
 20
-272.9999909002958
 30
0.0
 40
5.999999308398423
100
AcDbArc
 50
5.739170477268022
 51
32.23095263550188
  0
LINE
  5
7543
330
1E
100
AcDbEntity
  8
12
100
AcDbLine
 10
226.9699211680986
 20
-272.3999909694561
 30
0.0
 11
226.075427664744
 21
-272.3999909694561
 31
0.0
  0
LINE
  5
7544
330
1E
100
AcDbEntity
  8
12
100
AcDbLine
 10
226.075427664744
 20
-269.7999912691501
 30
0.0
 11
226.075427664744
 21
-272.3999909694561
 31
0.0
  0
LINE
  5
7545
330
1E
100
AcDbEntity
  8
12
100
AcDbLine
 10
226.075427664744
 20
-272.3999909694561
 30
0.0
 11
224.4999968301594
 21
-272.3999909694561
 31
0.0
  0
ARC
  5
7546
330
1E
100
AcDbEntity
  8
12
100
AcDbCircle
 10
220.9999972335936
 20
-272.9999909002958
 30
0.0
 40
5.999999308398423
100
AcDbArc
 50
327.7690473644981
 51
354.2608295227318
  0
LINE
  5
7547
330
1E
100
AcDbEntity
  8
12
100
AcDbLine
 10
226.075427664744
 20
-273.5999908311358
 30
0.0
 11
226.9699211680986
 21
-273.5999908311358
 31
0.0
  0
LINE
  5
7548
330
1E
100
AcDbEntity
  8
12
100
AcDbLine
 10
226.075427664744
 20
-273.5999908311358
 30
0.0
 11
226.075427664744
 21
-276.1999905314419
 31
0.0
  0
LINE
  5
7549
330
1E
100
AcDbEntity
  8
12
100
AcDbLine
 10
224.4999968301594
 20
-273.5999908311358
 30
0.0
 11
226.075427664744
 21
-273.5999908311358
 31
0.0
  0
LINE
  5
754A
330
1E
100
AcDbEntity
  8
12
100
AcDbLine
 10
224.4999968301594
 20
-272.3999909694561
 30
0.0
 11
224.4999968301594
 21
-273.5999908311358
 31
0.0
  0
ARC
  5
754B
330
1E
100
AcDbEntity
  8
10
100
AcDbCircle
 10
222.0000087681703
 20
-255.4999915342641
 30
0.0
 40
0.4999999329946449
100
AcDbArc
 50
0.0
 51
90.0
  0
LINE
  5
754C
330
1E
100
AcDbEntity
  8
10
100
AcDbLine
 10
222.5000024087779
 20
-255.4999915342641
 30
0.0
 11
222.5000024087779
 21
-256.4999909271416
 31
0.0
  0
INSERT
  5
754D
330
1E
100
AcDbEntity
  8
30
100
AcDbBlockReference
  2
*U1
 10
-173.7352011726184
 20
-765.8823475359051
 30
0.0
 41
1.66666647455514
 42
1.666666474555085
 43
1.666666474555118
  0
DIMENSION
  5
75CC
330
1E
100
AcDbEntity
  8
30
100
AcDbDimension
  2
*D8
 10
365.0
 20
-303.0
 30
0.0
 11
353.0
 21
-303.0
 31
0.0
 70
   160
  1
22(max)
  3
STANDARD
100
AcDbAlignedDimension
 13
340.0000000000001
 23
-292.0000000000001
 33
0.0
 14
365.0
 24
-292.0000000000001
 34
0.0
 50
180.0
100
AcDbRotatedDimension
  0
CIRCLE
  5
75D1
330
1E
100
AcDbEntity
  8
24
100
AcDbCircle
 10
352.4999999999998
 20
-282.0000000000001
 30
0.0
 40
4.499999999999997
  0
LINE
  5
75D2
330
1E
100
AcDbEntity
  8
24
100
AcDbLine
 10
340.0
 20
-292.0000000000001
 30
0.0
 11
364.9999999999998
 21
-292.0000000000001
 31
0.0
  0
LINE
  5
75D3
330
1E
100
AcDbEntity
  8
17
100
AcDbLine
 10
346.2499999999998
 20
-282.0000000000001
 30
0.0
 11
358.7499999999998
 21
-282.0000000000001
 31
0.0
  0
LINE
  5
75D5
330
1E
100
AcDbEntity
  8
17
100
AcDbLine
 10
352.4999999999998
 20
-275.7500000000001
 30
0.0
 11
352.4999999999998
 21
-288.2500000000001
 31
0.0
  0
LINE
  5
75D6
330
1E
100
AcDbEntity
  8
24
100
AcDbLine
 10
340.0
 20
-260.0000000000002
 30
0.0
 11
340.0
 21
-292.0000000000001
 31
0.0
  0
LINE
  5
75DA
330
1E
100
AcDbEntity
  8
24
100
AcDbLine
 10
365.0
 20
-259.850096500831
 30
0.0
 11
365.0
 21
-292.0000000000001
 31
0.0
  0
DIMENSION
  5
75DC
330
1E
100
AcDbEntity
  8
30
100
AcDbDimension
  2
*D9
 10
375.322607660254
 20
-282.0000000000001
 30
0.0
 11
381.0
 21
-288.0
 31
0.0
 70
   160
  1
15.5(max)
  3
STANDARD
100
AcDbAlignedDimension
 13
365.0
 23
-292.0000000000001
 33
0.0
 14
355.0000000164997
 24
-282.0000000000001
 34
0.0
 50
270.0
100
AcDbRotatedDimension
1001
ACAD
1000
DSTYLE
1002
{
1070
   287
1070
     5
1070
   287
1070
     5
1070
   287
1070
     5
1070
   279
1070
     2
1002
}
  0
DIMENSION
  5
77D3
330
1E
100
AcDbEntity
  8
30
100
AcDbDimension
  2
*D10
 10
87.50000000000005
 20
-129.1618080185512
 30
0.0
 11
17.50000000000005
 21
-126.1618080185514
 31
0.0
 70
    32
  3
STANDARD
100
AcDbAlignedDimension
 13
-52.49999999999993
 23
-82.50000000000005
 33
0.0
 14
87.50000000000005
 24
-82.50000000000005
 34
0.0
 50
180.0
100
AcDbRotatedDimension
  0
LINE
  5
77D5
330
1E
100
AcDbEntity
  8
10
100
AcDbLine
 10
-52.49999999999993
 20
-82.50000000000005
 30
0.0
 11
87.50000000000005
 21
-82.50000000000005
 31
0.0
  0
LINE
  5
77D6
330
1E
100
AcDbEntity
  8
10
100
AcDbLine
 10
87.50000000000005
 20
82.5
 30
0.0
 11
-52.49999999999993
 21
82.5
 31
0.0
  0
LINE
  5
77D7
330
1E
100
AcDbEntity
  8
10
100
AcDbLine
 10
-52.49999999999993
 20
51.0
 30
0.0
 11
87.50000000000005
 21
51.0
 31
0.0
  0
LINE
  5
77D8
330
1E
100
AcDbEntity
  8
10
100
AcDbLine
 10
-52.49999999999993
 20
-51.0
 30
0.0
 11
87.50000000000005
 21
-51.0
 31
0.0
  0
LINE
  5
77D9
330
1E
100
AcDbEntity
  8
17
100
AcDbLine
 10
-7.0
 20
72.00000000000007
 30
0.0
 11
7.0
 21
72.00000000000007
 31
0.0
  0
LINE
  5
77DA
330
1E
100
AcDbEntity
  8
17
100
AcDbLine
 10
-7.0
 20
-72.0
 30
0.0
 11
7.0
 21
-72.0
 31
0.0
  0
LINE
  5
77DB
330
1E
100
AcDbEntity
  8
10
100
AcDbLine
 10
7.0
 20
60.0
 30
0.0
 11
-7.0
 21
60.0
 31
0.0
  0
LINE
  5
77DC
330
1E
100
AcDbEntity
  8
10
100
AcDbLine
 10
7.0
 20
-60.0
 30
0.0
 11
-7.0
 21
-60.0
 31
0.0
  0
LINE
  5
77DE
330
1E
100
AcDbEntity
  8
10
100
AcDbLine
 10
7.0
 20
15.23995644007664
 30
0.0
 11
-7.0
 21
15.23995644007664
 31
0.0
  0
LINE
  5
77DF
330
1E
100
AcDbEntity
  8
10
100
AcDbLine
 10
7.0
 20
20.15486870581037
 30
0.0
 11
-7.000000000000909
 21
20.15486870581037
 31
0.0
  0
LINE
  5
77E0
330
1E
100
AcDbEntity
  8
10
100
AcDbLine
 10
7.0
 20
6.840789306861493
 30
0.0
 11
-6.99999999999909
 21
6.840789306861493
 31
0.0
  0
LINE
  5
77E1
330
1E
100
AcDbEntity
  8
10
100
AcDbLine
 10
-7.0
 20
-16.0
 30
0.0
 11
7.0
 21
-16.0
 31
0.0
  0
LINE
  5
77E2
330
1E
100
AcDbEntity
  8
10
100
AcDbLine
 10
-52.49999999999993
 20
22.5
 30
0.0
 11
87.50000000000005
 21
22.5
 31
0.0
  0
LINE
  5
77E3
330
1E
100
AcDbEntity
  8
10
100
AcDbLine
 10
-52.49999999999993
 20
-22.5
 30
0.0
 11
87.50000000000005
 21
-22.5
 31
0.0
  0
LINE
  5
77E4
330
1E
100
AcDbEntity
  8
10
100
AcDbLine
 10
-12.49999640344642
 20
-89.99999601728335
 30
0.0
 11
12.5000034118261
 21
-89.99999601728335
 31
0.0
  0
LINE
  5
77E5
330
1E
100
AcDbEntity
  8
10
100
AcDbLine
 10
-12.49999640344642
 20
90.00001234200983
 30
0.0
 11
12.5000034118261
 21
90.00001234200983
 31
0.0
  0
CIRCLE
  5
77E6
330
1E
100
AcDbEntity
  8
24
100
AcDbCircle
 10
0.0
 20
72.00000000000007
 30
0.0
 40
5.0
  0
CIRCLE
  5
77E7
330
1E
100
AcDbEntity
  8
24
100
AcDbCircle
 10
0.0
 20
-72.0
 30
0.0
 40
5.0
  0
LINE
  5
77E8
330
1E
100
AcDbEntity
  8
10
100
AcDbLine
 10
-52.49999999999993
 20
82.5
 30
0.0
 11
-52.49999999999993
 21
-82.50000000000005
 31
0.0
  0
LINE
  5
77E9
330
1E
100
AcDbEntity
  8
17
100
AcDbLine
 10
-35.0
 20
-65.0
 30
0.0
 11
-35.0
 21
-79.0
 31
0.0
  0
LINE
  5
77EA
330
1E
100
AcDbEntity
  8
10
100
AcDbLine
 10
-12.0
 20
-82.50000000000005
 30
0.0
 11
-12.0
 21
-65.0
 31
0.0
  0
LINE
  5
77EB
330
1E
100
AcDbEntity
  8
10
100
AcDbLine
 10
-47.0
 20
-82.50000000000005
 30
0.0
 11
-47.0
 21
-65.0
 31
0.0
  0
LINE
  5
77EC
330
1E
100
AcDbEntity
  8
10
100
AcDbLine
 10
-22.99999999999994
 20
-82.50000000000005
 30
0.0
 11
-22.99999999999994
 21
-65.0
 31
0.0
  0
CIRCLE
  5
77EE
330
1E
100
AcDbEntity
  8
24
100
AcDbCircle
 10
-35.0
 20
-72.0
 30
0.0
 40
5.0
  0
LINE
  5
77EF
330
1E
100
AcDbEntity
  8
10
100
AcDbLine
 10
-52.00000725430754
 20
-89.99999601728335
 30
0.0
 11
-22.50000359655357
 21
-89.99999601728335
 31
0.0
  0
LINE
  5
77F0
330
1E
100
AcDbEntity
  8
10
100
AcDbLine
 10
-52.50000095254796
 20
-85.999997984706
 30
0.0
 11
-52.50000095254796
 21
-89.49999020737939
 31
0.0
  0
ARC
  5
77F1
330
1E
100
AcDbEntity
  8
10
100
AcDbCircle
 10
-52.00000725430754
 20
-89.49999020737939
 30
0.0
 40
0.4999999906281084
100
AcDbArc
 50
180.0
 51
270.0
  0
ARC
  5
77F2
330
1E
100
AcDbEntity
  8
10
100
AcDbCircle
 10
-52.00000725430754
 20
-89.49999020737939
 30
0.0
 40
0.4999999906281084
100
AcDbArc
 50
180.0
 51
270.0
  0
LINE
  5
77F3
330
1E
100
AcDbEntity
  8
17
100
AcDbLine
 10
-42.0
 20
-72.0
 30
0.0
 11
-27.99999999999994
 21
-72.0
 31
0.0
  0
LINE
  5
77F4
330
1E
100
AcDbEntity
  8
10
100
AcDbLine
 10
-52.50000095254796
 20
-84.49999266665756
 30
0.0
 11
-49.99999612635526
 21
-84.49999266665756
 31
0.0
  0
LINE
  5
77F5
330
1E
100
AcDbEntity
  8
10
100
AcDbLine
 10
-49.99999612635526
 20
-84.49999266665756
 30
0.0
 11
-49.99999612635526
 21
-82.4999894022944
 31
0.0
  0
LINE
  5
77F6
330
1E
100
AcDbEntity
  8
10
100
AcDbLine
 10
-52.50000095254796
 20
-85.999997984706
 30
0.0
 11
-52.50000095254796
 21
-84.49999266665756
 31
0.0
  0
LINE
  5
77F7
330
1E
100
AcDbEntity
  8
10
100
AcDbLine
 10
-14.0000017214948
 20
-91.20745621185669
 30
0.0
 11
-12.49999640344642
 21
-93.80554129017747
 31
0.0
  0
LINE
  5
77F8
330
1E
100
AcDbEntity
  8
10
100
AcDbLine
 10
-12.49999640344642
 20
-89.99999601728335
 30
0.0
 11
-14.0000017214948
 21
-90.00745923646849
 31
0.0
  0
ARC
  5
77F9
330
1E
100
AcDbEntity
  8
10
100
AcDbCircle
 10
-13.49999591159074
 20
-98.99999159058261
 30
0.0
 40
0.9999999812562167
100
AcDbArc
 50
270.0
 51
0.0
  0
LINE
  5
77FA
330
1E
100
AcDbEntity
  8
10
100
AcDbLine
 10
-22.50000359655357
 20
-98.99999159058261
 30
0.0
 11
-22.50000359655357
 21
-93.80554129017747
 31
0.0
  0
LINE
  5
77FB
330
1E
100
AcDbEntity
  8
10
100
AcDbLine
 10
-17.49999680181186
 20
-90.99996979717708
 30
0.0
 11
-17.49999680181186
 21
-98.99996979717712
 31
0.0
  0
LINE
  5
77FC
330
1E
100
AcDbEntity
  8
10
100
AcDbLine
 10
-13.49999591159074
 20
-99.99999109872696
 30
0.0
 11
-21.50000408840922
 21
-99.99999109872696
 31
0.0
  0
ARC
  5
77FD
330
1E
100
AcDbEntity
  8
10
100
AcDbCircle
 10
-21.50000408840922
 20
-98.99999159058261
 30
0.0
 40
0.9999999812562167
100
AcDbArc
 50
180.0
 51
270.0
  0
LINE
  5
77FE
330
1E
100
AcDbEntity
  8
10
100
AcDbLine
 10
-21.4999968018119
 20
-94.99996979717709
 30
0.0
 11
-13.49999680181187
 21
-94.99996979717709
 31
0.0
  0
LINE
  5
77FF
330
1E
100
AcDbEntity
  8
10
100
AcDbLine
 10
-20.99999827850527
 20
-91.20745621185669
 30
0.0
 11
-20.99999827850527
 21
-90.00745680208344
 31
0.0
  0
LINE
  5
7800
330
1E
100
AcDbEntity
  8
10
100
AcDbLine
 10
-22.50000359655357
 20
-93.80554129017747
 30
0.0
 11
-20.99999827850527
 21
-91.20745621185669
 31
0.0
  0
LINE
  5
7801
330
1E
100
AcDbEntity
  8
10
100
AcDbLine
 10
-22.50000359655357
 20
-89.99999601728335
 30
0.0
 11
-20.99999827850527
 21
-90.00745923646849
 31
0.0
  0
LINE
  5
7802
330
1E
100
AcDbEntity
  8
10
100
AcDbLine
 10
-14.0000017214948
 20
-90.00745680208344
 30
0.0
 11
-14.0000017214948
 21
-91.20745621185669
 31
0.0
  0
CIRCLE
  5
7803
330
1E
100
AcDbEntity
  8
10
100
AcDbCircle
 10
-17.5
 20
-94.99999242253679
 30
0.0
 40
2.175250057989686
  0
LINE
  5
7804
330
1E
100
AcDbEntity
  8
10
100
AcDbLine
 10
-12.49999640344642
 20
-93.80554129017747
 30
0.0
 11
-12.49999640344642
 21
-98.99999159058261
 31
0.0
  0
LINE
  5
7805
330
1E
100
AcDbEntity
  8
10
100
AcDbLine
 10
-52.50000095254796
 20
90.00001234200983
 30
0.0
 11
-52.50000095254796
 21
86.00001430943242
 31
0.0
  0
LINE
  5
7808
330
1E
100
AcDbEntity
  8
10
100
AcDbLine
 10
-10.99999999999997
 20
22.5
 30
0.0
 11
-10.99999999999997
 21
-22.5
 31
0.0
  0
LINE
  5
7809
330
1E
100
AcDbEntity
  8
10
100
AcDbLine
 10
-7.0
 20
-16.0
 30
0.0
 11
-6.999999999999886
 21
20.15486870581037
 31
0.0
  0
ARC
  5
780A
330
1E
100
AcDbEntity
  8
10
100
AcDbCircle
 10
27.99999999999994
 20
-65.0
 30
0.0
 40
5.0
210
0.0
220
0.0
230
-1.0
100
AcDbArc
 50
90.0
 51
180.0
  0
LINE
  5
780B
330
1E
100
AcDbEntity
  8
10
100
AcDbLine
 10
-27.99999999999994
 20
-60.0
 30
0.0
 11
-42.0
 21
-60.0
 31
0.0
  0
ARC
  5
780C
330
1E
100
AcDbEntity
  8
10
100
AcDbCircle
 10
42.0
 20
-65.0
 30
0.0
 40
5.0
210
0.0
220
0.0
230
-1.0
100
AcDbArc
 50
0.0
 51
90.0
  0
LINE
  5
780D
330
1E
100
AcDbEntity
  8
12
100
AcDbLine
 10
-22.99999999999994
 20
-63.0
 30
0.0
 11
-12.0
 21
-63.0
 31
0.0
  0
LINE
  5
780E
330
1E
100
AcDbEntity
  8
12
100
AcDbLine
 10
-17.5
 20
-68.50000000000004
 30
0.0
 11
-17.5
 21
-57.5
 31
0.0
  0
CIRCLE
  5
780F
330
1E
100
AcDbEntity
  8
12
100
AcDbCircle
 10
17.5
 20
-63.0
 30
0.0
 40
4.0
210
0.0
220
0.0
230
-1.0
  0
ARC
  5
7810
330
1E
100
AcDbEntity
  8
10
100
AcDbCircle
 10
7.0
 20
-65.0
 30
0.0
 40
5.0
210
0.0
220
0.0
230
-1.0
100
AcDbArc
 50
0.0
 51
90.0
  0
ARC
  5
7811
330
1E
100
AcDbEntity
  8
10
100
AcDbCircle
 10
-27.99999999999994
 20
65.0
 30
0.0
 40
5.0
100
AcDbArc
 50
270.0
 51
0.0
  0
LINE
  5
7812
330
1E
100
AcDbEntity
  8
17
100
AcDbLine
 10
-35.0
 20
79.00000000000004
 30
0.0
 11
-35.0
 21
65.0
 31
0.0
  0
LINE
  5
7813
330
1E
100
AcDbEntity
  8
10
100
AcDbLine
 10
-47.0
 20
82.5
 30
0.0
 11
-47.0
 21
65.0
 31
0.0
  0
LINE
  5
7814
330
1E
100
AcDbEntity
  8
10
100
AcDbLine
 10
-27.99999999999994
 20
60.0
 30
0.0
 11
-42.0
 21
60.0
 31
0.0
  0
ARC
  5
7815
330
1E
100
AcDbEntity
  8
10
100
AcDbCircle
 10
-42.0
 20
65.0
 30
0.0
 40
5.0
100
AcDbArc
 50
180.0
 51
270.0
  0
LINE
  5
7816
330
1E
100
AcDbEntity
  8
17
100
AcDbLine
 10
-42.0
 20
72.00000000000007
 30
0.0
 11
-27.99999999999994
 21
72.00000000000007
 31
0.0
  0
CIRCLE
  5
7817
330
1E
100
AcDbEntity
  8
24
100
AcDbCircle
 10
-35.0
 20
72.00000000000007
 30
0.0
 40
5.0
  0
LINE
  5
7818
330
1E
100
AcDbEntity
  8
10
100
AcDbLine
 10
-49.99999612635526
 20
82.50001059770573
 30
0.0
 11
-49.99999612635526
 21
84.50000899138405
 31
0.0
  0
LINE
  5
7819
330
1E
100
AcDbEntity
  8
10
100
AcDbLine
 10
-52.50000095254796
 20
84.50000899138405
 30
0.0
 11
-52.50000095254796
 21
86.00001430943242
 31
0.0
  0
LINE
  5
781A
330
1E
100
AcDbEntity
  8
10
100
AcDbLine
 10
-49.99999612635526
 20
84.50000899138405
 30
0.0
 11
-52.50000095254796
 21
84.50000899138405
 31
0.0
  0
LINE
  5
781B
330
1E
100
AcDbEntity
  8
10
100
AcDbLine
 10
-12.0
 20
82.5
 30
0.0
 11
-12.0
 21
65.0
 31
0.0
  0
LINE
  5
781C
330
1E
100
AcDbEntity
  8
10
100
AcDbLine
 10
-22.99999999999994
 20
82.5
 30
0.0
 11
-22.99999999999994
 21
65.0
 31
0.0
  0
LINE
  5
781D
330
1E
100
AcDbEntity
  8
12
100
AcDbLine
 10
-17.5
 20
68.5
 30
0.0
 11
-17.5
 21
57.5
 31
0.0
  0
CIRCLE
  5
781E
330
1E
100
AcDbEntity
  8
12
100
AcDbCircle
 10
-17.5
 20
63.0
 30
0.0
 40
4.0
  0
LINE
  5
781F
330
1E
100
AcDbEntity
  8
12
100
AcDbLine
 10
-22.99999999999994
 20
63.0
 30
0.0
 11
-12.0
 21
63.0
 31
0.0
  0
ARC
  5
7820
330
1E
100
AcDbEntity
  8
10
100
AcDbCircle
 10
-7.0
 20
65.0
 30
0.0
 40
5.0
100
AcDbArc
 50
180.0
 51
270.0
  0
LINE
  5
7821
330
1E
100
AcDbEntity
  8
10
100
AcDbLine
 10
-52.50000095254796
 20
90.00001234200983
 30
0.0
 11
-22.50000359655357
 21
90.00001234200983
 31
0.0
  0
LINE
  5
7822
330
1E
100
AcDbEntity
  8
10
100
AcDbLine
 10
-12.49999640344642
 20
90.00001234200983
 30
0.0
 11
-14.0000017214948
 21
90.00746829418494
 31
0.0
  0
LINE
  5
7823
330
1E
100
AcDbEntity
  8
10
100
AcDbLine
 10
-12.49999640344642
 20
93.80554550324024
 30
0.0
 11
-14.0000017214948
 21
91.20747253658315
 31
0.0
  0
ARC
  5
7824
330
1E
100
AcDbEntity
  8
10
100
AcDbCircle
 10
-13.49999591159074
 20
98.99999580364536
 30
0.0
 40
0.9999999812562167
100
AcDbArc
 50
0.0
 51
90.0
  0
LINE
  5
7825
330
1E
100
AcDbEntity
  8
10
100
AcDbLine
 10
-22.50000359655357
 20
93.80554550324024
 30
0.0
 11
-22.50000359655357
 21
98.99999580364536
 31
0.0
  0
LINE
  5
7826
330
1E
100
AcDbEntity
  8
10
100
AcDbLine
 10
-17.49999680181186
 20
99.00002191038558
 30
0.0
 11
-17.49999680181186
 21
91.00002191038557
 31
0.0
  0
CIRCLE
  5
7827
330
1E
100
AcDbEntity
  8
10
100
AcDbCircle
 10
-17.5
 20
94.99999928502592
 30
0.0
 40
2.175250057989686
  0
LINE
  5
7828
330
1E
100
AcDbEntity
  8
10
100
AcDbLine
 10
-21.4999968018119
 20
95.0000219103855
 30
0.0
 11
-13.49999680181187
 21
95.0000219103855
 31
0.0
  0
LINE
  5
7829
330
1E
100
AcDbEntity
  8
10
100
AcDbLine
 10
-22.50000359655357
 20
90.00001234200983
 30
0.0
 11
-20.99999827850527
 21
90.00746829418494
 31
0.0
  0
LINE
  5
782A
330
1E
100
AcDbEntity
  8
10
100
AcDbLine
 10
-20.99999827850527
 20
91.20747253658315
 30
0.0
 11
-22.50000359655357
 21
93.80554550324024
 31
0.0
  0
LINE
  5
782B
330
1E
100
AcDbEntity
  8
10
100
AcDbLine
 10
-20.99999827850527
 20
90.00747312680989
 30
0.0
 11
-20.99999827850527
 21
91.20747253658315
 31
0.0
  0
LINE
  5
782C
330
1E
100
AcDbEntity
  8
10
100
AcDbLine
 10
-14.0000017214948
 20
91.20747253658315
 30
0.0
 11
-14.0000017214948
 21
90.00747312680989
 31
0.0
  0
LINE
  5
782D
330
1E
100
AcDbEntity
  8
10
100
AcDbLine
 10
-21.50000408840922
 20
100.0000074234532
 30
0.0
 11
-13.49999591159074
 21
100.0000074234532
 31
0.0
  0
ARC
  5
782E
330
1E
100
AcDbEntity
  8
10
100
AcDbCircle
 10
-21.50000408840922
 20
98.99999580364536
 30
0.0
 40
0.9999999812562167
100
AcDbArc
 50
90.0
 51
180.0
  0
LINE
  5
782F
330
1E
100
AcDbEntity
  8
10
100
AcDbLine
 10
-12.49999640344642
 20
98.99999580364536
 30
0.0
 11
-12.49999640344642
 21
93.80554550324024
 31
0.0
  0
DIMENSION
  5
7830
330
1E
100
AcDbEntity
  8
30
100
AcDbDimension
  2
*D12
 10
125.3720095788777
 20
90.00001234200977
 30
0.0
 11
122.3720095788777
 21
0.0000081623632153
 31
0.0
 70
    32
  3
STANDARD
100
AcDbAlignedDimension
 13
86.99998493607614
 23
-89.99999601728335
 33
0.0
 14
86.99998493607614
 24
90.00001234200977
 34
0.0
 50
270.0
100
AcDbRotatedDimension
  0
DIMENSION
  5
7831
330
1E
100
AcDbEntity
  8
30
100
AcDbDimension
  2
*D13
 10
106.6220095788775
 20
82.49999999999998
 30
0.0
 11
103.6220095788777
 21
-0.0000000000000133
 31
0.0
 70
    32
  3
STANDARD
100
AcDbAlignedDimension
 13
87.50000000000005
 23
-82.50000000000005
 33
0.0
 14
87.50000000000005
 24
82.5
 34
0.0
 50
270.0
100
AcDbRotatedDimension
  0
LINE
  5
7832
330
1E
100
AcDbEntity
  8
10
100
AcDbLine
 10
87.50000000000005
 20
82.5
 30
0.0
 11
87.50000000000005
 21
-82.50000000000005
 31
0.0
  0
LINE
  5
7833
330
1E
100
AcDbEntity
  8
17
100
AcDbLine
 10
35.00000000000003
 20
-65.0
 30
0.0
 11
35.00000000000003
 21
-79.0
 31
0.0
  0
LINE
  5
7834
330
1E
100
AcDbEntity
  8
10
100
AcDbLine
 10
23.00000000000002
 20
-82.50000000000005
 30
0.0
 11
23.00000000000002
 21
-65.0
 31
0.0
  0
LINE
  5
7835
330
1E
100
AcDbEntity
  8
10
100
AcDbLine
 10
47.0
 20
-82.50000000000005
 30
0.0
 11
47.0
 21
-65.0
 31
0.0
  0
LINE
  5
7836
330
1E
100
AcDbEntity
  8
10
100
AcDbLine
 10
12.0
 20
-82.50000000000005
 30
0.0
 11
12.0
 21
-65.0
 31
0.0
  0
LINE
  5
7837
330
1E
100
AcDbEntity
  8
17
100
AcDbLine
 10
70.0
 20
-65.0
 30
0.0
 11
70.0
 21
-79.0
 31
0.0
  0
LINE
  5
7838
330
1E
100
AcDbEntity
  8
10
100
AcDbLine
 10
58.0
 20
-82.50000000000005
 30
0.0
 11
58.0
 21
-65.0
 31
0.0
  0
LINE
  5
7839
330
1E
100
AcDbEntity
  8
10
100
AcDbLine
 10
82.00000000000008
 20
-82.50000000000005
 30
0.0
 11
82.00000000000008
 21
-65.0
 31
0.0
  0
CIRCLE
  5
783A
330
1E
100
AcDbEntity
  8
24
100
AcDbCircle
 10
35.00000000000003
 20
-72.0
 30
0.0
 40
5.0
  0
CIRCLE
  5
783B
330
1E
100
AcDbEntity
  8
24
100
AcDbCircle
 10
-70.0
 20
-72.0
 30
0.0
 40
5.0
210
0.0
220
0.0
230
-1.0
  0
LINE
  5
783C
330
1E
100
AcDbEntity
  8
10
100
AcDbLine
 10
56.50000599350505
 20
-99.99999109872696
 30
0.0
 11
48.49998570502293
 21
-99.99999109872696
 31
0.0
  0
LINE
  5
783D
330
1E
100
AcDbEntity
  8
10
100
AcDbLine
 10
48.50000190509581
 20
-94.99999242253679
 30
0.0
 11
56.50000190509587
 21
-94.99999242253679
 31
0.0
  0
CIRCLE
  5
783E
330
1E
100
AcDbEntity
  8
10
100
AcDbCircle
 10
52.50000190509581
 20
-94.99999242253679
 30
0.0
 40
2.175250057989686
  0
LINE
  5
783F
330
1E
100
AcDbEntity
  8
10
100
AcDbLine
 10
22.49999849326973
 20
-89.99999601728335
 30
0.0
 11
47.4999983085422
 21
-89.99999601728335
 31
0.0
  0
LINE
  5
7840
330
1E
100
AcDbEntity
  8
10
100
AcDbLine
 10
21.49998687346175
 20
-99.99999109872696
 30
0.0
 11
13.4999908083069
 21
-99.99999109872696
 31
0.0
  0
LINE
  5
7841
330
1E
100
AcDbEntity
  8
10
100
AcDbLine
 10
12.5000034118261
 20
-93.80554129017747
 30
0.0
 11
14.00000872987453
 21
-91.20745621185669
 31
0.0
  0
LINE
  5
7842
330
1E
100
AcDbEntity
  8
10
100
AcDbLine
 10
12.5000034118261
 20
-89.99999601728335
 30
0.0
 11
14.00000872987453
 21
-90.00745927262533
 31
0.0
  0
LINE
  5
7843
330
1E
100
AcDbEntity
  8
10
100
AcDbLine
 10
21.49998687346175
 20
-99.99999109872696
 30
0.0
 11
13.4999908083069
 21
-99.99999109872696
 31
0.0
  0
LINE
  5
7844
330
1E
100
AcDbEntity
  8
10
100
AcDbLine
 10
13.50000255164194
 20
-94.99998110985693
 30
0.0
 11
21.50000255164192
 21
-94.99998110985693
 31
0.0
  0
LINE
  5
7845
330
1E
100
AcDbEntity
  8
10
100
AcDbLine
 10
12.5000034118261
 20
-98.99999159058261
 30
0.0
 11
12.5000034118261
 21
-93.80554129017747
 31
0.0
  0
ARC
  5
7846
330
1E
100
AcDbEntity
  8
10
100
AcDbCircle
 10
13.4999908083069
 20
-98.99999159058261
 30
0.0
 40
0.9999999812562167
100
AcDbArc
 50
180.0
 51
270.0
  0
LINE
  5
7847
330
1E
100
AcDbEntity
  8
10
100
AcDbLine
 10
22.49999849326973
 20
-93.80554129017747
 30
0.0
 11
22.49999849326973
 21
-98.99999159058261
 31
0.0
  0
LINE
  5
7848
330
1E
100
AcDbEntity
  8
10
100
AcDbLine
 10
17.50000255164193
 20
-90.99998110985692
 30
0.0
 11
17.50000255164193
 21
-98.99998110985693
 31
0.0
  0
ARC
  5
7849
330
1E
100
AcDbEntity
  8
10
100
AcDbCircle
 10
21.49998687346175
 20
-98.99999159058261
 30
0.0
 40
0.9999999812562167
100
AcDbArc
 50
270.0
 51
0.0
  0
LINE
  5
784A
330
1E
100
AcDbEntity
  8
10
100
AcDbLine
 10
14.00000872987453
 20
-91.20745621185669
 30
0.0
 11
14.00000872987453
 21
-90.00745680208344
 31
0.0
  0
CIRCLE
  5
784B
330
1E
100
AcDbEntity
  8
10
100
AcDbCircle
 10
17.49998884088427
 20
-94.99999355800516
 30
0.0
 40
2.250000028793265
  0
LINE
  5
784C
330
1E
100
AcDbEntity
  8
10
100
AcDbLine
 10
22.49999849326973
 20
-89.99999601728335
 30
0.0
 11
20.99999317522128
 21
-90.00745927262533
 31
0.0
  0
LINE
  5
784D
330
1E
100
AcDbEntity
  8
10
100
AcDbLine
 10
20.99999317522128
 20
-90.00745680208344
 30
0.0
 11
20.99999317522128
 21
-91.20745621185669
 31
0.0
  0
LINE
  5
784E
330
1E
100
AcDbEntity
  8
10
100
AcDbLine
 10
20.99999317522128
 20
-91.20745621185669
 30
0.0
 11
22.49999849326973
 21
-93.80554129017747
 31
0.0
  0
LINE
  5
784F
330
1E
100
AcDbEntity
  8
10
100
AcDbLine
 10
47.4999983085422
 20
-98.99999159058261
 30
0.0
 11
47.4999983085422
 21
-93.80554129017747
 31
0.0
  0
LINE
  5
7850
330
1E
100
AcDbEntity
  8
10
100
AcDbLine
 10
52.50000190509581
 20
-90.99999242253678
 30
0.0
 11
52.50000190509581
 21
-98.99999242253677
 31
0.0
  0
ARC
  5
7851
330
1E
100
AcDbEntity
  8
10
100
AcDbCircle
 10
48.49998570502293
 20
-98.99999159058261
 30
0.0
 40
0.9999999812562167
100
AcDbArc
 50
180.0
 51
270.0
  0
LINE
  5
7852
330
1E
100
AcDbEntity
  8
10
100
AcDbLine
 10
49.00000362659056
 20
-91.20745621185669
 30
0.0
 11
49.00000362659056
 21
-90.00745680208344
 31
0.0
  0
LINE
  5
7853
330
1E
100
AcDbEntity
  8
10
100
AcDbLine
 10
47.4999983085422
 20
-89.99999601728335
 30
0.0
 11
49.00000362659056
 21
-90.00745927262533
 31
0.0
  0
LINE
  5
7854
330
1E
100
AcDbEntity
  8
10
100
AcDbLine
 10
47.4999983085422
 20
-93.80554129017747
 30
0.0
 11
49.00000362659056
 21
-91.20745621185669
 31
0.0
  0
LINE
  5
7855
330
1E
100
AcDbEntity
  8
17
100
AcDbLine
 10
28.00000000000002
 20
-72.0
 30
0.0
 11
42.0
 21
-72.0
 31
0.0
  0
LINE
  5
7856
330
1E
100
AcDbEntity
  8
10
100
AcDbLine
 10
57.49999338998581
 20
-89.99999601728335
 30
0.0
 11
83.74998956252278
 21
-89.99999601728335
 31
0.0
  0
LINE
  5
7857
330
1E
100
AcDbEntity
  8
10
100
AcDbLine
 10
57.49999338998581
 20
-93.80554129017747
 30
0.0
 11
57.49999338998581
 21
-98.99999159058261
 31
0.0
  0
ARC
  5
7858
330
1E
100
AcDbEntity
  8
10
100
AcDbCircle
 10
56.50000599350505
 20
-98.99999159058261
 30
0.0
 40
0.9999999812562167
100
AcDbArc
 50
270.0
 51
0.0
  0
LINE
  5
7859
330
1E
100
AcDbEntity
  8
10
100
AcDbLine
 10
55.99998807193742
 20
-90.00745680208344
 30
0.0
 11
55.99998807193742
 21
-91.20745621185669
 31
0.0
  0
LINE
  5
785A
330
1E
100
AcDbEntity
  8
10
100
AcDbLine
 10
55.99998807193742
 20
-91.20745621185669
 30
0.0
 11
57.49999338998581
 21
-93.80554129017747
 31
0.0
  0
LINE
  5
785B
330
1E
100
AcDbEntity
  8
10
100
AcDbLine
 10
57.49999338998581
 20
-89.99999601728335
 30
0.0
 11
55.99998807193742
 21
-90.00745927262533
 31
0.0
  0
LINE
  5
785C
330
1E
100
AcDbEntity
  8
17
100
AcDbLine
 10
77.00000000000007
 20
-72.0
 30
0.0
 11
63.0
 21
-72.0
 31
0.0
  0
LINE
  5
785D
330
1E
100
AcDbEntity
  8
10
100
AcDbLine
 10
87.50000285764375
 20
-82.4999894022944
 30
0.0
 11
87.50000285764375
 21
-89.49999020737939
 31
0.0
  0
ARC
  5
785E
330
1E
100
AcDbEntity
  8
10
100
AcDbCircle
 10
86.99998493607614
 20
-89.49999020737939
 30
0.0
 40
0.4999999906281084
100
AcDbArc
 50
270.0
 51
0.0
  0
ARC
  5
785F
330
1E
100
AcDbEntity
  8
10
100
AcDbCircle
 10
86.99998493607614
 20
-89.49999020737939
 30
0.0
 40
0.4999999906281084
100
AcDbArc
 50
270.0
 51
0.0
  0
LINE
  5
7860
330
1E
100
AcDbEntity
  8
10
100
AcDbLine
 10
86.99998493607614
 20
-89.99999601728335
 30
0.0
 11
83.74998956252278
 21
-89.99999601728335
 31
0.0
  0
LINE
  5
7861
330
1E
100
AcDbEntity
  8
10
100
AcDbLine
 10
87.50000285764375
 20
89.49999442044218
 30
0.0
 11
87.50000285764375
 21
82.50001059770573
 31
0.0
  0
LINE
  5
7863
330
1E
100
AcDbEntity
  8
10
100
AcDbLine
 10
11.00000000000002
 20
22.5
 30
0.0
 11
11.00000000000002
 21
-22.5
 31
0.0
  0
LINE
  5
7864
330
1E
100
AcDbEntity
  8
10
100
AcDbLine
 10
7.0
 20
-16.0
 30
0.0
 11
7.000000000000083
 21
20.15486870581037
 31
0.0
  0
ARC
  5
7865
330
1E
100
AcDbEntity
  8
10
100
AcDbCircle
 10
-28.00000000000002
 20
-65.0
 30
0.0
 40
5.0
210
0.0
220
0.0
230
-1.0
100
AcDbArc
 50
0.0
 51
90.0
  0
LINE
  5
7866
330
1E
100
AcDbEntity
  8
12
100
AcDbLine
 10
12.0
 20
-63.0
 30
0.0
 11
23.00000000000002
 21
-63.0
 31
0.0
  0
CIRCLE
  5
7867
330
1E
100
AcDbEntity
  8
12
100
AcDbCircle
 10
17.5
 20
-63.0
 30
0.0
 40
4.0
  0
ARC
  5
7868
330
1E
100
AcDbEntity
  8
10
100
AcDbCircle
 10
-7.0
 20
-65.0
 30
0.0
 40
5.0
210
0.0
220
0.0
230
-1.0
100
AcDbArc
 50
90.0
 51
180.0
  0
LINE
  5
7869
330
1E
100
AcDbEntity
  8
12
100
AcDbLine
 10
17.5
 20
-68.50000000000004
 30
0.0
 11
17.5
 21
-57.5
 31
0.0
  0
LINE
  5
786A
330
1E
100
AcDbEntity
  8
10
100
AcDbLine
 10
42.0
 20
-60.0
 30
0.0
 11
28.00000000000002
 21
-60.0
 31
0.0
  0
ARC
  5
786B
330
1E
100
AcDbEntity
  8
10
100
AcDbCircle
 10
-42.0
 20
-65.0
 30
0.0
 40
5.0
210
0.0
220
0.0
230
-1.0
100
AcDbArc
 50
90.0
 51
180.0
  0
ARC
  5
786C
330
1E
100
AcDbEntity
  8
10
100
AcDbCircle
 10
77.00000000000007
 20
-65.0
 30
0.0
 40
5.0
100
AcDbArc
 50
0.0
 51
90.0
  0
LINE
  5
786D
330
1E
100
AcDbEntity
  8
10
100
AcDbLine
 10
63.0
 20
-60.0
 30
0.0
 11
77.00000000000007
 21
-60.0
 31
0.0
  0
ARC
  5
786E
330
1E
100
AcDbEntity
  8
10
100
AcDbCircle
 10
63.0
 20
-65.0
 30
0.0
 40
5.0
100
AcDbArc
 50
90.0
 51
180.0
  0
ARC
  5
786F
330
1E
100
AcDbEntity
  8
10
100
AcDbCircle
 10
28.00000000000002
 20
65.0
 30
0.0
 40
5.0
100
AcDbArc
 50
180.0
 51
270.0
  0
LINE
  5
7870
330
1E
100
AcDbEntity
  8
10
100
AcDbLine
 10
23.00000000000002
 20
82.5
 30
0.0
 11
23.00000000000002
 21
65.0
 31
0.0
  0
LINE
  5
7871
330
1E
100
AcDbEntity
  8
10
100
AcDbLine
 10
12.0
 20
82.5
 30
0.0
 11
12.0
 21
65.0
 31
0.0
  0
LINE
  5
7872
330
1E
100
AcDbEntity
  8
12
100
AcDbLine
 10
17.5
 20
68.5
 30
0.0
 11
17.5
 21
57.5
 31
0.0
  0
CIRCLE
  5
7873
330
1E
100
AcDbEntity
  8
12
100
AcDbCircle
 10
-17.5
 20
63.0
 30
0.0
 40
4.0
210
0.0
220
0.0
230
-1.0
  0
LINE
  5
7874
330
1E
100
AcDbEntity
  8
12
100
AcDbLine
 10
12.0
 20
63.0
 30
0.0
 11
23.00000000000002
 21
63.0
 31
0.0
  0
ARC
  5
7875
330
1E
100
AcDbEntity
  8
10
100
AcDbCircle
 10
7.0
 20
65.0
 30
0.0
 40
5.0
100
AcDbArc
 50
270.0
 51
0.0
  0
LINE
  5
7876
330
1E
100
AcDbEntity
  8
17
100
AcDbLine
 10
35.00000000000003
 20
79.00000000000004
 30
0.0
 11
35.00000000000003
 21
65.0
 31
0.0
  0
LINE
  5
7877
330
1E
100
AcDbEntity
  8
10
100
AcDbLine
 10
47.0
 20
82.5
 30
0.0
 11
47.0
 21
65.0
 31
0.0
  0
LINE
  5
7878
330
1E
100
AcDbEntity
  8
10
100
AcDbLine
 10
42.0
 20
60.0
 30
0.0
 11
28.00000000000002
 21
60.0
 31
0.0
  0
ARC
  5
7879
330
1E
100
AcDbEntity
  8
10
100
AcDbCircle
 10
42.0
 20
65.0
 30
0.0
 40
5.0
100
AcDbArc
 50
270.0
 51
0.0
  0
LINE
  5
787A
330
1E
100
AcDbEntity
  8
17
100
AcDbLine
 10
28.00000000000002
 20
72.00000000000007
 30
0.0
 11
42.0
 21
72.00000000000007
 31
0.0
  0
CIRCLE
  5
787B
330
1E
100
AcDbEntity
  8
24
100
AcDbCircle
 10
35.00000000000003
 20
72.00000000000007
 30
0.0
 40
5.0
  0
LINE
  5
787C
330
1E
100
AcDbEntity
  8
10
100
AcDbLine
 10
66.5
 20
35.28553390593242
 30
0.0
 11
67.5
 21
36.28553390593248
 31
0.0
  0
LINE
  5
787D
330
1E
100
AcDbEntity
  8
10
100
AcDbLine
 10
66.5
 20
37.76040764008517
 30
0.0
 11
67.5
 21
38.76040764008518
 31
0.0
  0
LINE
  5
787E
330
1E
100
AcDbEntity
  8
10
100
AcDbLine
 10
66.5
 20
40.23528137423793
 30
0.0
 11
67.48272401107067
 21
41.21800538530862
 31
0.0
  0
LINE
  5
787F
330
1E
100
AcDbEntity
  8
10
100
AcDbLine
 10
66.5
 20
36.34619407771225
 30
0.0
 11
67.5
 21
37.34619407771219
 31
0.0
  0
LINE
  5
7880
330
1E
100
AcDbEntity
  8
10
100
AcDbLine
 10
66.5
 20
32.45710678118655
 30
0.0
 11
67.5
 21
33.45710678118649
 31
0.0
  0
LINE
  5
7881
330
1E
100
AcDbEntity
  8
10
100
AcDbLine
 10
66.5
 20
38.82106781186485
 30
0.0
 11
68.06504724263607
 21
40.38611505450091
 31
0.0
  0
LINE
  5
7882
330
1E
100
AcDbEntity
  8
10
100
AcDbLine
 10
66.5
 20
34.93198051533919
 30
0.0
 11
67.5
 21
35.93198051533915
 31
0.0
  0
LINE
  5
7883
330
1E
100
AcDbEntity
  8
10
100
AcDbLine
 10
66.5
 20
37.40685424949197
 30
0.0
 11
67.5
 21
38.40685424949197
 31
0.0
  0
LINE
  5
7884
330
1E
100
AcDbEntity
  8
10
100
AcDbLine
 10
66.5
 20
33.51776695296621
 30
0.0
 11
67.5
 21
34.51776695296621
 31
0.0
  0
LINE
  5
7885
330
1E
100
AcDbEntity
  8
10
100
AcDbLine
 10
66.5
 20
39.88172798364473
 30
0.0
 11
67.62830481896196
 21
41.0100328026067
 31
0.0
  0
LINE
  5
7886
330
1E
100
AcDbEntity
  8
10
100
AcDbLine
 10
66.5
 20
35.99264068711898
 30
0.0
 11
67.5
 21
36.99264068711897
 31
0.0
  0
LINE
  5
7887
330
1E
100
AcDbEntity
  8
10
100
AcDbLine
 10
66.5
 20
39.52817459305146
 30
0.0
 11
67.77388562685337
 21
40.80206021990477
 31
0.0
  0
LINE
  5
7888
330
1E
100
AcDbEntity
  8
10
100
AcDbLine
 10
66.5
 20
32.10355339059328
 30
0.0
 11
67.5
 21
33.10355339059327
 31
0.0
  0
LINE
  5
7889
330
1E
100
AcDbEntity
  8
10
100
AcDbLine
 10
66.5
 20
36.69974746830542
 30
0.0
 11
67.5
 21
37.6997474683054
 31
0.0
  0
LINE
  5
788A
330
1E
100
AcDbEntity
  8
10
100
AcDbLine
 10
66.5
 20
32.81066017177977
 30
0.0
 11
67.5
 21
33.81066017177971
 31
0.0
  0
LINE
  5
788B
330
1E
100
AcDbEntity
  8
10
100
AcDbLine
 10
66.5
 20
37.05330085889869
 30
0.0
 11
67.5
 21
38.05330085889869
 31
0.0
  0
LINE
  5
788C
330
1E
100
AcDbEntity
  8
10
100
AcDbLine
 10
66.5
 20
39.17462120245811
 30
0.0
 11
67.91946643474478
 21
40.59408763720284
 31
0.0
  0
LINE
  5
788D
330
1E
100
AcDbEntity
  8
10
100
AcDbLine
 10
66.5
 20
33.87132034355937
 30
0.0
 11
67.5
 21
34.87132034355937
 31
0.0
  0
LINE
  5
788E
330
1E
100
AcDbEntity
  8
10
100
AcDbLine
 10
66.5
 20
40.58883476483115
 30
0.0
 11
67.33714320317933
 21
41.4259779680105
 31
0.0
  0
LINE
  5
788F
330
1E
100
AcDbEntity
  8
10
100
AcDbLine
 10
66.5
 20
38.11396103067846
 30
0.0
 11
67.5
 21
39.11396103067835
 31
0.0
  0
LINE
  5
7890
330
1E
100
AcDbEntity
  8
10
100
AcDbLine
 10
66.5
 20
40.94238815542438
 30
0.0
 11
67.19156239528803
 21
41.63395055071243
 31
0.0
  0
LINE
  5
7891
330
1E
100
AcDbEntity
  8
10
100
AcDbLine
 10
66.5
 20
38.46751442127168
 30
0.0
 11
68.21062805052746
 21
40.17814247179904
 31
0.0
  0
LINE
  5
7892
330
1E
100
AcDbEntity
  8
10
100
AcDbLine
 10
66.5
 20
34.57842712474592
 30
0.0
 11
67.5
 21
35.57842712474593
 31
0.0
  0
LINE
  5
7893
330
1E
100
AcDbEntity
  8
10
100
AcDbLine
 10
66.5
 20
31.74999999999994
 30
0.0
 11
67.5
 21
32.74999999999987
 31
0.0
  0
LINE
  5
7894
330
1E
100
AcDbEntity
  8
10
100
AcDbLine
 10
66.5
 20
33.16421356237305
 30
0.0
 11
67.5
 21
34.16421356237293
 31
0.0
  0
LINE
  5
7895
330
1E
100
AcDbEntity
  8
10
100
AcDbLine
 10
66.5
 20
35.63908729652563
 30
0.0
 11
67.5
 21
36.63908729652575
 31
0.0
  0
LINE
  5
7896
330
1E
100
AcDbEntity
  8
10
100
AcDbLine
 10
66.85355339059339
 20
31.75000000000006
 30
0.0
 11
67.5
 21
32.39644660940664
 31
0.0
  0
LINE
  5
7897
330
1E
100
AcDbEntity
  8
10
100
AcDbLine
 10
66.5
 20
41.74999999999992
 30
0.0
 11
67.11032778078674
 21
41.74999999999992
 31
0.0
  0
LINE
  5
7898
330
1E
100
AcDbEntity
  8
10
100
AcDbLine
 10
66.5
 20
31.74999999999994
 30
0.0
 11
67.5
 21
31.74999999999994
 31
0.0
  0
LINE
  5
7899
330
1E
100
AcDbEntity
  8
10
100
AcDbLine
 10
66.5
 20
34.2248737341527
 30
0.0
 11
67.5
 21
35.22487373415271
 31
0.0
  0
CIRCLE
  5
789A
330
1E
100
AcDbEntity
  8
10
100
AcDbCircle
 10
70.0
 20
36.74999999999993
 30
0.0
 40
8.000000000000001
  0
LINE
  5
789B
330
1E
100
AcDbEntity
  8
10
100
AcDbLine
 10
66.5
 20
31.74999999999994
 30
0.0
 11
66.5
 21
41.74999999999992
 31
0.0
  0
LINE
  5
789C
330
1E
100
AcDbEntity
  8
10
100
AcDbLine
 10
66.5
 20
41.64949493661089
 30
0.0
 11
66.60050506338916
 21
41.74999999999992
 31
0.0
  0
LINE
  5
789D
330
1E
100
AcDbEntity
  8
10
100
AcDbLine
 10
66.5
 20
41.29594154601773
 30
0.0
 11
66.95405845398238
 21
41.74999999999992
 31
0.0
  0
LINE
  5
789E
330
1E
100
AcDbEntity
  8
10
100
AcDbLine
 10
69.09398425405356
 20
37.17241137879947
 30
0.0
 11
69.81201693733209
 21
37.89044406207784
 31
0.0
  0
LINE
  5
789F
330
1E
100
AcDbEntity
  8
10
100
AcDbLine
 10
72.5
 20
37.39644660940683
 30
0.0
 11
73.50000000000004
 21
38.39644660940683
 31
0.0
  0
LINE
  5
78A0
330
1E
100
AcDbEntity
  8
10
100
AcDbLine
 10
72.5
 20
34.05046825826655
 30
0.0
 11
72.5
 21
41.74999999999992
 31
0.0
  0
LINE
  5
78A1
330
1E
100
AcDbEntity
  8
10
100
AcDbLine
 10
72.5
 20
36.68933982822021
 30
0.0
 11
73.50000000000004
 21
37.68933982822017
 31
0.0
  0
LINE
  5
78A2
330
1E
100
AcDbEntity
  8
10
100
AcDbLine
 10
67.5
 20
39.44953174173326
 30
0.0
 11
72.88967221921336
 21
31.75000000000006
 31
0.0
  0
LINE
  5
78A3
330
1E
100
AcDbEntity
  8
10
100
AcDbLine
 10
67.5
 20
39.44953174173326
 30
0.0
 11
67.5
 21
31.74999999999994
 31
0.0
  0
LINE
  5
78A4
330
1E
100
AcDbEntity
  8
10
100
AcDbLine
 10
68.94840344616238
 20
37.38038396150153
 30
0.0
 11
69.66643612944074
 21
38.09841664477993
 31
0.0
  0
LINE
  5
78A5
330
1E
100
AcDbEntity
  8
10
100
AcDbLine
 10
73.50000000000004
 20
31.74999999999994
 30
0.0
 11
73.50000000000004
 21
41.74999999999992
 31
0.0
  0
LINE
  5
78A6
330
1E
100
AcDbEntity
  8
10
100
AcDbLine
 10
69.23956506194503
 20
36.96443879609768
 30
0.0
 11
69.95759774522344
 21
37.68247147937609
 31
0.0
  0
LINE
  5
78A7
330
1E
100
AcDbEntity
  8
10
100
AcDbLine
 10
69.38514586983638
 20
36.75646621339581
 30
0.0
 11
70.10317855311484
 21
37.4744988966742
 31
0.0
  0
LINE
  5
78A8
330
1E
100
AcDbEntity
  8
10
100
AcDbLine
 10
72.5
 20
37.04289321881342
 30
0.0
 11
73.50000000000004
 21
38.04289321881339
 31
0.0
  0
LINE
  5
78A9
330
1E
100
AcDbEntity
  8
10
100
AcDbLine
 10
67.11032778078674
 20
41.74999999999992
 30
0.0
 11
72.5
 21
34.05046825826655
 31
0.0
  0
LINE
  5
78AA
330
1E
100
AcDbEntity
  8
10
100
AcDbLine
 10
72.86396103067852
 20
31.74999999999994
 30
0.0
 11
73.50000000000004
 21
32.38603896932147
 31
0.0
  0
LINE
  5
78AB
330
1E
100
AcDbEntity
  8
10
100
AcDbLine
 10
72.5
 20
35.27512626584718
 30
0.0
 11
73.50000000000004
 21
36.27512626584717
 31
0.0
  0
LINE
  5
78AC
330
1E
100
AcDbEntity
  8
10
100
AcDbLine
 10
71.86001960398908
 20
33.22093230746332
 30
0.0
 11
73.50000000000004
 21
34.86091270347429
 31
0.0
  0
LINE
  5
78AD
330
1E
100
AcDbEntity
  8
10
100
AcDbLine
 10
69.67630748561908
 20
36.34052104799201
 30
0.0
 11
70.39434016889742
 21
37.05855373127036
 31
0.0
  0
LINE
  5
78AE
330
1E
100
AcDbEntity
  8
10
100
AcDbLine
 10
72.5
 20
34.21446609406739
 30
0.0
 11
73.50000000000004
 21
35.2144660940675
 31
0.0
  0
LINE
  5
78AF
330
1E
100
AcDbEntity
  8
10
100
AcDbLine
 10
70.69537314085835
 20
34.88471296907857
 30
0.0
 11
71.4134058241367
 21
35.60274565235696
 31
0.0
  0
LINE
  5
78B0
330
1E
100
AcDbEntity
  8
10
100
AcDbLine
 10
72.5
 20
36.335786437627
 30
0.0
 11
73.50000000000004
 21
37.33578643762706
 31
0.0
  0
LINE
  5
78B1
330
1E
100
AcDbEntity
  8
10
100
AcDbLine
 10
72.29676202766312
 20
32.59701455935754
 30
0.0
 11
73.50000000000004
 21
33.80025253169447
 31
0.0
  0
LINE
  5
78B2
330
1E
100
AcDbEntity
  8
10
100
AcDbLine
 10
70.113049909293
 20
35.71660329988617
 30
0.0
 11
70.83108259257149
 21
36.43463598316464
 31
0.0
  0
LINE
  5
78B3
330
1E
100
AcDbEntity
  8
10
100
AcDbLine
 10
73.50000000000004
 20
31.74999999999994
 30
0.0
 11
72.88967221921343
 21
31.74999999999994
 31
0.0
  0
LINE
  5
78B4
330
1E
100
AcDbEntity
  8
10
100
AcDbLine
 10
71.13211556453234
 20
34.26079522097278
 30
0.0
 11
71.85014824781081
 21
34.97882790425119
 31
0.0
  0
LINE
  5
78B5
330
1E
100
AcDbEntity
  8
10
100
AcDbLine
 10
71.71443879609779
 20
33.4289048901652
 30
0.0
 11
72.43247147937609
 21
34.14693757344348
 31
0.0
  0
LINE
  5
78B6
330
1E
100
AcDbEntity
  8
10
100
AcDbLine
 10
72.5
 20
34.92157287525401
 30
0.0
 11
73.50000000000004
 21
35.92157287525401
 31
0.0
  0
LINE
  5
78B7
330
1E
100
AcDbEntity
  8
10
100
AcDbLine
 10
69.53072667772767
 20
36.54849363069393
 30
0.0
 11
70.24875936100613
 21
37.26652631397228
 31
0.0
  0
LINE
  5
78B8
330
1E
100
AcDbEntity
  8
10
100
AcDbLine
 10
72.73350445133712
 20
31.97309681125182
 30
0.0
 11
73.50000000000004
 21
32.73959235991475
 31
0.0
  0
LINE
  5
78B9
330
1E
100
AcDbEntity
  8
10
100
AcDbLine
 10
70.54979233296704
 20
35.09268555178039
 30
0.0
 11
71.26782501624539
 21
35.81071823505885
 31
0.0
  0
LINE
  5
78BA
330
1E
100
AcDbEntity
  8
10
100
AcDbLine
 10
67.20710678118661
 20
31.74999999999994
 30
0.0
 11
67.5
 21
32.04289321881342
 31
0.0
  0
LINE
  5
78BB
330
1E
100
AcDbEntity
  8
10
100
AcDbLine
 10
72.44234283555441
 20
32.3890419766556
 30
0.0
 11
73.50000000000004
 21
33.44669914110125
 31
0.0
  0
LINE
  5
78BC
330
1E
100
AcDbEntity
  8
10
100
AcDbLine
 10
70.25863071718436
 20
35.50863071718429
 30
0.0
 11
70.9766634004627
 21
36.22666340046271
 31
0.0
  0
LINE
  5
78BD
330
1E
100
AcDbEntity
  8
10
100
AcDbLine
 10
71.27769637242375
 20
34.05282263827098
 30
0.0
 11
71.9957290557022
 21
34.77085532154926
 31
0.0
  0
LINE
  5
78BE
330
1E
100
AcDbEntity
  8
10
100
AcDbLine
 10
72.5
 20
35.6286796564405
 30
0.0
 11
73.50000000000004
 21
36.6286796564405
 31
0.0
  0
LINE
  5
78BF
330
1E
100
AcDbEntity
  8
10
100
AcDbLine
 10
72.15118121977184
 20
32.80498714205946
 30
0.0
 11
73.50000000000004
 21
34.15380592228768
 31
0.0
  0
LINE
  5
78C0
330
1E
100
AcDbEntity
  8
10
100
AcDbLine
 10
69.96746910140178
 20
35.9245758825881
 30
0.0
 11
70.68550178468019
 21
36.64260856586651
 31
0.0
  0
LINE
  5
78C1
330
1E
100
AcDbEntity
  8
10
100
AcDbLine
 10
70.98653475664105
 20
34.46876780367471
 30
0.0
 11
71.70456743991945
 21
35.18680048695313
 31
0.0
  0
LINE
  5
78C2
330
1E
100
AcDbEntity
  8
10
100
AcDbLine
 10
72.5
 20
34.56801948466079
 30
0.0
 11
73.50000000000004
 21
35.56801948466072
 31
0.0
  0
LINE
  5
78C3
330
1E
100
AcDbEntity
  8
10
100
AcDbLine
 10
71.56885798820633
 20
33.63687747286695
 30
0.0
 11
72.28689067148479
 21
34.35491015614559
 31
0.0
  0
LINE
  5
78C4
330
1E
100
AcDbEntity
  8
10
100
AcDbLine
 10
72.58792364344571
 20
32.18106939395374
 30
0.0
 11
73.50000000000004
 21
33.09314575050803
 31
0.0
  0
LINE
  5
78C5
330
1E
100
AcDbEntity
  8
10
100
AcDbLine
 10
70.40421152507576
 20
35.30065813448243
 30
0.0
 11
71.12224420835412
 21
36.01869081776084
 31
0.0
  0
LINE
  5
78C6
330
1E
100
AcDbEntity
  8
10
100
AcDbLine
 10
70.84095394874975
 20
34.67674038637665
 30
0.0
 11
71.55898663202816
 21
35.39477306965506
 31
0.0
  0
LINE
  5
78C7
330
1E
100
AcDbEntity
  8
10
100
AcDbLine
 10
72.5
 20
35.98223304703372
 30
0.0
 11
73.50000000000004
 21
36.98223304703372
 31
0.0
  0
LINE
  5
78C8
330
1E
100
AcDbEntity
  8
10
100
AcDbLine
 10
73.21751442127172
 20
31.74999999999994
 30
0.0
 11
73.50000000000004
 21
32.03248557872825
 31
0.0
  0
LINE
  5
78C9
330
1E
100
AcDbEntity
  8
10
100
AcDbLine
 10
71.42327718031499
 20
33.84485005556894
 30
0.0
 11
72.14130986359339
 21
34.56288273884752
 31
0.0
  0
LINE
  5
78CA
330
1E
100
AcDbEntity
  8
10
100
AcDbLine
 10
72.00560041188044
 20
33.0129597247614
 30
0.0
 11
73.50000000000004
 21
34.50735931288113
 31
0.0
  0
LINE
  5
78CB
330
1E
100
AcDbEntity
  8
10
100
AcDbLine
 10
69.82188829351037
 20
36.13254846529002
 30
0.0
 11
70.53992097678872
 21
36.85058114856843
 31
0.0
  0
LINE
  5
78CC
330
1E
100
AcDbEntity
  8
10
100
AcDbLine
 10
68.65724183037968
 20
37.79632912690527
 30
0.0
 11
69.37527451365804
 21
38.51436181018367
 31
0.0
  0
LINE
  5
78CD
330
1E
100
AcDbEntity
  8
10
100
AcDbLine
 10
72.5
 20
41.63908729652574
 30
0.0
 11
72.61091270347434
 21
41.74999999999992
 31
0.0
  0
LINE
  5
78CE
330
1E
100
AcDbEntity
  8
10
100
AcDbLine
 10
67.929337790923
 20
38.83619204041485
 30
0.0
 11
68.64737047420135
 21
39.55422472369326
 31
0.0
  0
LINE
  5
78CF
330
1E
100
AcDbEntity
  8
10
100
AcDbLine
 10
72.5
 20
38.81066017177971
 30
0.0
 11
73.50000000000004
 21
39.81066017177964
 31
0.0
  0
LINE
  5
78D0
330
1E
100
AcDbEntity
  8
10
100
AcDbLine
 10
68.07491859881435
 20
38.62821945771297
 30
0.0
 11
68.79295128209264
 21
39.34625214099138
 31
0.0
  0
LINE
  5
78D1
330
1E
100
AcDbEntity
  8
10
100
AcDbLine
 10
72.5
 20
37.75000000000005
 30
0.0
 11
73.50000000000004
 21
38.75
 31
0.0
  0
LINE
  5
78D2
330
1E
100
AcDbEntity
  8
10
100
AcDbLine
 10
68.36608021459699
 20
38.21227429230913
 30
0.0
 11
69.0841128978754
 21
38.93030697558754
 31
0.0
  0
LINE
  5
78D3
330
1E
100
AcDbEntity
  8
10
100
AcDbLine
 10
72.5
 20
39.16421356237305
 30
0.0
 11
73.50000000000004
 21
40.16421356237299
 31
0.0
  0
LINE
  5
78D4
330
1E
100
AcDbEntity
  8
10
100
AcDbLine
 10
72.5
 20
41.28553390593237
 30
0.0
 11
72.96446609406769
 21
41.74999999999992
 31
0.0
  0
LINE
  5
78D5
330
1E
100
AcDbEntity
  8
10
100
AcDbLine
 10
72.5
 20
40.22487373415271
 30
0.0
 11
73.50000000000004
 21
41.22487373415276
 31
0.0
  0
LINE
  5
78D6
330
1E
100
AcDbEntity
  8
10
100
AcDbLine
 10
72.5
 20
41.74999999999992
 30
0.0
 11
73.50000000000004
 21
41.74999999999992
 31
0.0
  0
LINE
  5
78D7
330
1E
100
AcDbEntity
  8
10
100
AcDbLine
 10
72.5
 20
40.57842712474593
 30
0.0
 11
73.50000000000004
 21
41.57842712474597
 31
0.0
  0
LINE
  5
78D8
330
1E
100
AcDbEntity
  8
10
100
AcDbLine
 10
68.2204994067057
 20
38.42024687501106
 30
0.0
 11
68.93853208998405
 21
39.13827955828939
 31
0.0
  0
LINE
  5
78D9
330
1E
100
AcDbEntity
  8
10
100
AcDbLine
 10
72.5
 20
39.87132034355949
 30
0.0
 11
73.50000000000004
 21
40.87132034355943
 31
0.0
  0
LINE
  5
78DA
330
1E
100
AcDbEntity
  8
10
100
AcDbLine
 10
72.5
 20
39.51776695296621
 30
0.0
 11
73.50000000000004
 21
40.51776695296621
 31
0.0
  0
LINE
  5
78DB
330
1E
100
AcDbEntity
  8
10
100
AcDbLine
 10
72.5
 20
38.45710678118649
 30
0.0
 11
73.50000000000004
 21
39.45710678118649
 31
0.0
  0
LINE
  5
78DC
330
1E
100
AcDbEntity
  8
10
100
AcDbLine
 10
72.5
 20
38.10355339059303
 30
0.0
 11
73.50000000000004
 21
39.10355339059321
 31
0.0
  0
LINE
  5
78DD
330
1E
100
AcDbEntity
  8
10
100
AcDbLine
 10
68.51166102248839
 20
38.0043017096072
 30
0.0
 11
69.22969370576675
 21
38.7223343928856
 31
0.0
  0
LINE
  5
78DE
330
1E
100
AcDbEntity
  8
10
100
AcDbLine
 10
72.5
 20
40.93198051533931
 30
0.0
 11
73.31801948466069
 21
41.74999999999992
 31
0.0
  0
LINE
  5
78DF
330
1E
100
AcDbEntity
  8
10
100
AcDbLine
 10
68.80282263827098
 20
37.58835654420335
 30
0.0
 11
69.52085532154945
 21
38.30638922748185
 31
0.0
  0
LINE
  5
78E0
330
1E
100
AcDbEntity
  8
10
100
AcDbLine
 10
67.78375698303159
 20
39.04416462311678
 30
0.0
 11
68.50178966631006
 21
39.76219730639535
 31
0.0
  0
LINE
  5
78E1
330
1E
100
AcDbEntity
  8
10
100
AcDbLine
 10
67.6381761751403
 20
39.25213720581871
 30
0.0
 11
68.35620885841875
 21
39.97016988909712
 31
0.0
  0
ARC
  5
78E2
330
1E
100
AcDbEntity
  8
10
100
AcDbCircle
 10
-77.00000000000007
 20
65.0
 30
0.0
 40
5.0
210
0.0
220
0.0
230
-1.0
100
AcDbArc
 50
180.0
 51
270.0
  0
LINE
  5
78E3
330
1E
100
AcDbEntity
  8
17
100
AcDbLine
 10
70.0
 20
79.00000000000004
 30
0.0
 11
70.0
 21
65.0
 31
0.0
  0
LINE
  5
78E4
330
1E
100
AcDbEntity
  8
10
100
AcDbLine
 10
58.0
 20
82.5
 30
0.0
 11
58.0
 21
65.0
 31
0.0
  0
LINE
  5
78E5
330
1E
100
AcDbEntity
  8
10
100
AcDbLine
 10
63.0
 20
60.0
 30
0.0
 11
77.00000000000007
 21
60.0
 31
0.0
  0
ARC
  5
78E6
330
1E
100
AcDbEntity
  8
10
100
AcDbCircle
 10
-63.0
 20
65.0
 30
0.0
 40
5.0
210
0.0
220
0.0
230
-1.0
100
AcDbArc
 50
270.0
 51
0.0
  0
LINE
  5
78E7
330
1E
100
AcDbEntity
  8
17
100
AcDbLine
 10
77.00000000000007
 20
72.00000000000007
 30
0.0
 11
63.0
 21
72.00000000000007
 31
0.0
  0
CIRCLE
  5
78E8
330
1E
100
AcDbEntity
  8
24
100
AcDbCircle
 10
-70.0
 20
72.00000000000007
 30
0.0
 40
5.0
210
0.0
220
0.0
230
-1.0
  0
LINE
  5
78E9
330
1E
100
AcDbEntity
  8
10
100
AcDbLine
 10
82.00000000000008
 20
82.5
 30
0.0
 11
82.00000000000008
 21
65.0
 31
0.0
  0
LINE
  5
78EA
330
1E
100
AcDbEntity
  8
10
100
AcDbLine
 10
48.49998570502293
 20
100.0000074234532
 30
0.0
 11
56.50000599350505
 21
100.0000074234532
 31
0.0
  0
LINE
  5
78EB
330
1E
100
AcDbEntity
  8
10
100
AcDbLine
 10
48.50000190509581
 20
94.99999928502592
 30
0.0
 11
56.50000190509587
 21
94.99999928502592
 31
0.0
  0
CIRCLE
  5
78EC
330
1E
100
AcDbEntity
  8
10
100
AcDbCircle
 10
52.50000190509581
 20
94.99999928502592
 30
0.0
 40
2.175250057989686
  0
LINE
  5
78ED
330
1E
100
AcDbEntity
  8
10
100
AcDbLine
 10
22.49999849326973
 20
90.00001234200983
 30
0.0
 11
47.4999983085422
 21
90.00001234200983
 31
0.0
  0
LINE
  5
78EE
330
1E
100
AcDbEntity
  8
10
100
AcDbLine
 10
12.5000034118261
 20
90.00001234200983
 30
0.0
 11
14.00000872987453
 21
90.00746833030655
 31
0.0
  0
LINE
  5
78EF
330
1E
100
AcDbEntity
  8
10
100
AcDbLine
 10
14.00000872987453
 20
91.20747253658315
 30
0.0
 11
12.5000034118261
 21
93.80554550324024
 31
0.0
  0
LINE
  5
78F0
330
1E
100
AcDbEntity
  8
10
100
AcDbLine
 10
13.4999908083069
 20
100.0000074234532
 30
0.0
 11
21.49998687346175
 21
100.0000074234532
 31
0.0
  0
LINE
  5
78F1
330
1E
100
AcDbEntity
  8
10
100
AcDbLine
 10
13.50000255164194
 20
95.0000105977058
 30
0.0
 11
21.50000255164192
 21
95.0000105977058
 31
0.0
  0
LINE
  5
78F2
330
1E
100
AcDbEntity
  8
10
100
AcDbLine
 10
12.5000034118261
 20
93.80554550324024
 30
0.0
 11
12.5000034118261
 21
98.99999580364536
 31
0.0
  0
ARC
  5
78F3
330
1E
100
AcDbEntity
  8
10
100
AcDbCircle
 10
13.4999908083069
 20
98.99999580364536
 30
0.0
 40
0.9999999812562167
100
AcDbArc
 50
90.0
 51
180.0
  0
LINE
  5
78F4
330
1E
100
AcDbEntity
  8
10
100
AcDbLine
 10
22.49999849326973
 20
98.99999580364536
 30
0.0
 11
22.49999849326973
 21
93.80554550324024
 31
0.0
  0
LINE
  5
78F5
330
1E
100
AcDbEntity
  8
10
100
AcDbLine
 10
17.50000255164193
 20
99.00001059770573
 30
0.0
 11
17.50000255164193
 21
91.00001059770582
 31
0.0
  0
CIRCLE
  5
78F6
330
1E
100
AcDbEntity
  8
10
100
AcDbCircle
 10
17.49998884088427
 20
94.99999777106792
 30
0.0
 40
2.250000028793265
  0
LINE
  5
78F7
330
1E
100
AcDbEntity
  8
10
100
AcDbLine
 10
14.00000872987453
 20
90.00747312680989
 30
0.0
 11
14.00000872987453
 21
91.20747253658315
 31
0.0
  0
LINE
  5
78F8
330
1E
100
AcDbEntity
  8
10
100
AcDbLine
 10
22.49999849326973
 20
90.00001234200983
 30
0.0
 11
20.99999317522128
 21
90.00746833030655
 31
0.0
  0
LINE
  5
78F9
330
1E
100
AcDbEntity
  8
10
100
AcDbLine
 10
22.49999849326973
 20
93.80554550324024
 30
0.0
 11
20.99999317522128
 21
91.20747253658315
 31
0.0
  0
LINE
  5
78FA
330
1E
100
AcDbEntity
  8
10
100
AcDbLine
 10
20.99999317522128
 20
91.20747253658315
 30
0.0
 11
20.99999317522128
 21
90.00747312680989
 31
0.0
  0
ARC
  5
78FB
330
1E
100
AcDbEntity
  8
10
100
AcDbCircle
 10
21.49998687346175
 20
98.99999580364536
 30
0.0
 40
0.9999999812562167
100
AcDbArc
 50
0.0
 51
90.0
  0
LINE
  5
78FC
330
1E
100
AcDbEntity
  8
10
100
AcDbLine
 10
47.4999983085422
 20
93.80554550324024
 30
0.0
 11
47.4999983085422
 21
98.99999580364536
 31
0.0
  0
LINE
  5
78FD
330
1E
100
AcDbEntity
  8
10
100
AcDbLine
 10
52.50000190509581
 20
98.99999928502593
 30
0.0
 11
52.50000190509581
 21
90.99999928502588
 31
0.0
  0
LINE
  5
78FE
330
1E
100
AcDbEntity
  8
10
100
AcDbLine
 10
49.00000362659056
 20
90.00747312680989
 30
0.0
 11
49.00000362659056
 21
91.20747253658315
 31
0.0
  0
LINE
  5
78FF
330
1E
100
AcDbEntity
  8
10
100
AcDbLine
 10
47.4999983085422
 20
90.00001234200983
 30
0.0
 11
49.00000362659056
 21
90.00746833030655
 31
0.0
  0
LINE
  5
7900
330
1E
100
AcDbEntity
  8
10
100
AcDbLine
 10
49.00000362659056
 20
91.20747253658315
 30
0.0
 11
47.4999983085422
 21
93.80554550324024
 31
0.0
  0
ARC
  5
7901
330
1E
100
AcDbEntity
  8
10
100
AcDbCircle
 10
48.49998570502293
 20
98.99999580364536
 30
0.0
 40
0.9999999812562167
100
AcDbArc
 50
90.0
 51
180.0
  0
LINE
  5
7902
330
1E
100
AcDbEntity
  8
10
100
AcDbLine
 10
57.49999338998581
 20
90.00001234200983
 30
0.0
 11
83.74998956252278
 21
90.00001234200983
 31
0.0
  0
LINE
  5
7903
330
1E
100
AcDbEntity
  8
10
100
AcDbLine
 10
57.49999338998581
 20
98.99999580364536
 30
0.0
 11
57.49999338998581
 21
93.80554550324024
 31
0.0
  0
LINE
  5
7904
330
1E
100
AcDbEntity
  8
10
100
AcDbLine
 10
57.49999338998581
 20
98.99999580364536
 30
0.0
 11
57.49999338998581
 21
93.80554550324024
 31
0.0
  0
LINE
  5
7905
330
1E
100
AcDbEntity
  8
10
100
AcDbLine
 10
55.99998807193742
 20
91.20747253658315
 30
0.0
 11
55.99998807193742
 21
90.00747312680989
 31
0.0
  0
LINE
  5
7906
330
1E
100
AcDbEntity
  8
10
100
AcDbLine
 10
57.49999338998581
 20
93.80554550324024
 30
0.0
 11
55.99998807193742
 21
91.20747253658315
 31
0.0
  0
LINE
  5
7907
330
1E
100
AcDbEntity
  8
10
100
AcDbLine
 10
57.49999338998581
 20
90.00001234200983
 30
0.0
 11
55.99998807193742
 21
90.00746833030655
 31
0.0
  0
ARC
  5
7908
330
1E
100
AcDbEntity
  8
10
100
AcDbCircle
 10
56.50000599350505
 20
98.99999580364536
 30
0.0
 40
0.9999999812562167
100
AcDbArc
 50
0.0
 51
90.0
  0
ARC
  5
7909
330
1E
100
AcDbEntity
  8
10
100
AcDbCircle
 10
86.99998493607614
 20
89.49999442044218
 30
0.0
 40
0.4999999906281084
100
AcDbArc
 50
0.0
 51
90.0
  0
ARC
  5
790A
330
1E
100
AcDbEntity
  8
10
100
AcDbCircle
 10
86.99998493607614
 20
89.49999442044218
 30
0.0
 40
0.4999999906281084
100
AcDbArc
 50
0.0
 51
90.0
  0
LINE
  5
790B
330
1E
100
AcDbEntity
  8
10
100
AcDbLine
 10
83.74998956252278
 20
90.00001234200983
 30
0.0
 11
86.99998493607614
 21
90.00001234200983
 31
0.0
  0
DIMENSION
  5
7E90
330
1E
100
AcDbEntity
  8
30
100
AcDbDimension
  2
*D17
 10
331.7113852994403
 20
-130.0
 30
0.0
 11
261.711384992312
 21
-127.0
 31
0.0
 70
    32
  3
STANDARD
100
AcDbAlignedDimension
 13
191.7113846851835
 23
-2.500000016499996
 33
0.0
 14
331.7113852994403
 24
-53.99999766312254
 34
0.0
 50
180.0
100
AcDbRotatedDimension
  0
DIMENSION
  5
7E91
330
1E
100
AcDbEntity
  8
30
100
AcDbDimension
  2
*D18
 10
331.7113852994403
 20
-120.0
 30
0.0
 11
271.7113849923119
 21
-117.0
 31
0.0
 70
    32
  3
STANDARD
100
AcDbAlignedDimension
 13
211.7113846851838
 23
-22.5
 33
0.0
 14
331.7113852994403
 24
-53.99999766312254
 34
0.0
 50
180.0
100
AcDbRotatedDimension
  0
DIMENSION
  5
7E92
330
1E
100
AcDbEntity
  8
30
100
AcDbDimension
  2
*D19
 10
211.7113846851838
 20
-120.0
 30
0.0
 11
218.0447180185171
 21
-117.0
 31
0.0
 70
    32
  3
STANDARD
100
AcDbAlignedDimension
 13
207.7113846851835
 23
-22.5
 33
0.0
 14
211.7113846851838
 24
-22.5
 34
0.0
 50
180.0
100
AcDbRotatedDimension
  0
DIMENSION
  5
7E93
330
1E
100
AcDbEntity
  8
30
100
AcDbDimension
  2
*D20
 10
358.7113841310013
 20
-110.0
 30
0.0
 11
345.2113847152208
 21
-107.0
 31
0.0
 70
    32
  3
STANDARD
100
AcDbAlignedDimension
 13
331.7113852994403
 23
-53.99999766312254
 33
0.0
 14
358.7113841310013
 24
-87.99999305169427
 34
0.0
 50
180.0
100
AcDbRotatedDimension
  0
DIMENSION
  5
7E94
330
1E
100
AcDbEntity
  8
30
100
AcDbDimension
  2
*D21
 10
331.7113852994403
 20
-110.0
 30
0.0
 11
273.7113849923118
 21
-107.0
 31
0.0
 70
    32
  3
STANDARD
100
AcDbAlignedDimension
 13
215.7113846851838
 23
-51.0
 33
0.0
 14
331.7113852994403
 24
-53.99999766312254
 34
0.0
 50
180.0
100
AcDbRotatedDimension
  0
DIMENSION
  5
7E95
330
1E
100
AcDbEntity
  8
30
100
AcDbDimension
  2
*D22
 10
387.4583937051291
 20
90.00000417964656
 30
0.0
 11
384.458393705129
 21
0.0000060558318304
 31
0.0
 70
    32
  3
STANDARD
100
AcDbAlignedDimension
 13
358.2113904327611
 23
-89.99999206798303
 33
0.0
 14
358.2113904327611
 24
90.00000417964656
 34
0.0
 50
270.0
100
AcDbRotatedDimension
  0
LINE
  5
7E96
330
1E
100
AcDbEntity
  8
10
100
AcDbLine
 10
222.7113846851838
 20
-51.0
 30
0.0
 11
222.7113846851838
 21
-82.50000000000005
 31
0.0
  0
LINE
  5
7E97
330
1E
100
AcDbEntity
  8
10
100
AcDbLine
 10
283.7113846851838
 20
82.5
 30
0.0
 11
283.7113846851838
 21
-82.50000000000005
 31
0.0
  0
LINE
  5
7E98
330
1E
100
AcDbEntity
  8
10
100
AcDbLine
 10
358.7113841310013
 20
-55.49999086950726
 30
0.0
 11
358.7113841310013
 21
-87.99999305169427
 31
0.0
  0
LINE
  5
7E99
330
1E
100
AcDbEntity
  8
10
100
AcDbLine
 10
325.7113882505742
 20
-89.49998625807898
 30
0.0
 11
325.7113882505742
 21
-49.49999382064111
 31
0.0
  0
LINE
  5
7E9A
330
1E
100
AcDbEntity
  8
10
100
AcDbLine
 10
288.7113943375691
 20
-48.49999431249671
 30
0.0
 11
288.7113943375691
 21
-84.49998871735717
 31
0.0
  0
LINE
  5
7E9B
330
1E
100
AcDbEntity
  8
17
100
AcDbLine
 10
368.7113841310012
 20
-72.0
 30
0.0
 11
273.7113841310014
 21
-72.0
 31
0.0
  0
LINE
  5
7E9C
330
1E
100
AcDbEntity
  8
10
100
AcDbLine
 10
312.7113825330336
 20
-87.99999305169427
 30
0.0
 11
289.2113880358095
 21
-87.99999305169427
 31
0.0
  0
DIMENSION
  5
7E9D
330
1E
100
AcDbEntity
  8
30
100
AcDbDimension
  2
*D23
 10
283.7113846851838
 20
-100.0
 30
0.0
 11
253.2113846851838
 21
-97.0
 31
0.0
 70
    32
  3
STANDARD
100
AcDbAlignedDimension
 13
222.7113846851838
 23
-82.50000000000005
 33
0.0
 14
283.7113846851838
 24
-82.50000000000005
 34
0.0
 50
180.0
100
AcDbRotatedDimension
  0
LINE
  5
7E9E
330
1E
100
AcDbEntity
  8
10
100
AcDbLine
 10
222.7113846851838
 20
-82.50000000000005
 30
0.0
 11
283.7113846851838
 21
-82.50000000000005
 31
0.0
  0
LINE
  5
7EA0
330
1E
100
AcDbEntity
  8
10
100
AcDbLine
 10
288.2113764160013
 20
-92.49999689417569
 30
0.0
 11
277.2113939380772
 21
-92.49999689417569
 31
0.0
  0
LINE
  5
7EA1
330
1E
100
AcDbEntity
  8
10
100
AcDbLine
 10
288.2113764160013
 20
-86.4999877336459
 30
0.0
 11
283.7113846851838
 21
-86.4999877336459
 31
0.0
  0
LINE
  5
7EA2
330
1E
100
AcDbEntity
  8
10
100
AcDbLine
 10
277.2113939380772
 20
-89.99999206798301
 30
0.0
 11
288.2113764160013
 21
-89.99999206798301
 31
0.0
  0
LINE
  5
7EA3
330
1E
100
AcDbEntity
  8
10
100
AcDbLine
 10
276.7114002398368
 20
-89.49998625807898
 30
0.0
 11
276.7114002398368
 21
-86.99999354354988
 31
0.0
  0
LINE
  5
7EA4
330
1E
100
AcDbEntity
  8
10
100
AcDbLine
 10
276.7114002398368
 20
-91.99999108427169
 30
0.0
 11
276.7114002398368
 21
-90.49999787788694
 31
0.0
  0
LINE
  5
7EA5
330
1E
100
AcDbEntity
  8
10
100
AcDbLine
 10
276.7114002398368
 20
-90.04063881114694
 30
0.0
 11
276.7114002398368
 21
-89.9154042091459
 31
0.0
  0
LINE
  5
7EA6
330
1E
100
AcDbEntity
  8
10
100
AcDbLine
 10
276.7114002398368
 20
-90.15485179923876
 30
0.0
 11
276.7114002398368
 21
-90.04063881114694
 31
0.0
  0
LINE
  5
7EA7
330
1E
100
AcDbEntity
  8
10
100
AcDbLine
 10
276.7114002398368
 20
-89.9154042091459
 30
0.0
 11
276.7114002398368
 21
-89.78172777759029
 31
0.0
  0
LINE
  5
7EA8
330
1E
100
AcDbEntity
  8
10
100
AcDbLine
 10
276.7114002398368
 20
-90.34125030260387
 30
0.0
 11
276.7114002398368
 21
-90.25574195733051
 31
0.0
  0
LINE
  5
7EA9
330
1E
100
AcDbEntity
  8
10
100
AcDbLine
 10
276.7114002398368
 20
-90.48981196876871
 30
0.0
 11
276.7114002398368
 21
-90.45948436302305
 31
0.0
  0
LINE
  5
7EAA
330
1E
100
AcDbEntity
  8
10
100
AcDbLine
 10
276.7114002398368
 20
-90.45948436302305
 30
0.0
 11
276.7114002398368
 21
-90.40962064383171
 31
0.0
  0
LINE
  5
7EAB
330
1E
100
AcDbEntity
  8
10
100
AcDbLine
 10
276.7114002398368
 20
-89.64231041747103
 30
0.0
 11
276.7114002398368
 21
-89.49998625807898
 31
0.0
  0
LINE
  5
7EAC
330
1E
100
AcDbEntity
  8
10
100
AcDbLine
 10
276.7114002398368
 20
-90.49999787788694
 30
0.0
 11
276.7114002398368
 21
-90.48981196876871
 31
0.0
  0
LINE
  5
7EAD
330
1E
100
AcDbEntity
  8
10
100
AcDbLine
 10
276.7114002398368
 20
-90.25574195733051
 30
0.0
 11
276.7114002398368
 21
-90.15485179923876
 31
0.0
  0
LINE
  5
7EAE
330
1E
100
AcDbEntity
  8
10
100
AcDbLine
 10
276.7114002398368
 20
-90.40962064383171
 30
0.0
 11
276.7114002398368
 21
-90.34125030260387
 31
0.0
  0
LINE
  5
7EAF
330
1E
100
AcDbEntity
  8
10
100
AcDbLine
 10
276.7114002398368
 20
-89.78172777759029
 30
0.0
 11
276.7114002398368
 21
-89.64231041747103
 31
0.0
  0
ARC
  5
7EB0
330
1E
100
AcDbEntity
  8
10
100
AcDbCircle
 10
277.2113939380772
 20
-91.99999108427169
 30
0.0
 40
0.4999999906281084
100
AcDbArc
 50
180.0
 51
270.0
  0
ARC
  5
7EB1
330
1E
100
AcDbEntity
  8
10
100
AcDbCircle
 10
277.2113939380772
 20
-90.49999787788694
 30
0.0
 40
0.4999999906281084
100
AcDbArc
 50
90.0
 51
180.0
  0
LINE
  5
7EB2
330
1E
100
AcDbEntity
  8
10
100
AcDbLine
 10
283.7113846851838
 20
-86.4999877336459
 30
0.0
 11
277.2113939380772
 21
-86.4999877336459
 31
0.0
  0
LINE
  5
7EB3
330
1E
100
AcDbEntity
  8
10
100
AcDbLine
 10
277.2113939380772
 20
-84.69998861898611
 30
0.0
 11
283.7113846851838
 21
-84.69998861898611
 31
0.0
  0
LINE
  5
7EB4
330
1E
100
AcDbEntity
  8
10
100
AcDbLine
 10
276.7114002398368
 20
-86.04049543860588
 30
0.0
 11
276.7114002398368
 21
-86.01016783286018
 31
0.0
  0
LINE
  5
7EB5
330
1E
100
AcDbEntity
  8
10
100
AcDbLine
 10
276.7114002398368
 20
-86.45935310214559
 30
0.0
 11
276.7114002398368
 21
-86.34512800239017
 31
0.0
  0
LINE
  5
7EB6
330
1E
100
AcDbEntity
  8
10
100
AcDbLine
 10
276.7114002398368
 20
-86.7182641357022
 30
0.0
 11
276.7114002398368
 21
-86.58457559248295
 31
0.0
  0
LINE
  5
7EB7
330
1E
100
AcDbEntity
  8
10
100
AcDbLine
 10
276.7114002398368
 20
-85.99999403540556
 30
0.0
 11
276.7114002398368
 21
-85.19999442889005
 31
0.0
  0
LINE
  5
7EB8
330
1E
100
AcDbEntity
  8
10
100
AcDbLine
 10
276.7114002398368
 20
-86.99999354354988
 30
0.0
 11
276.7114002398368
 21
-86.8576814958215
 31
0.0
  0
LINE
  5
7EB9
330
1E
100
AcDbEntity
  8
10
100
AcDbLine
 10
276.7114002398368
 20
-87.00004199020446
 30
0.0
 11
276.7114002398368
 21
-85.69998812713043
 31
0.0
  0
LINE
  5
7EBA
330
1E
100
AcDbEntity
  8
10
100
AcDbLine
 10
276.7114002398368
 20
-86.58457559248295
 30
0.0
 11
276.7114002398368
 21
-86.45935310214559
 31
0.0
  0
LINE
  5
7EBB
330
1E
100
AcDbEntity
  8
10
100
AcDbLine
 10
276.7114002398368
 20
-86.34512800239017
 30
0.0
 11
276.7114002398368
 21
-86.24423784429842
 31
0.0
  0
LINE
  5
7EBC
330
1E
100
AcDbEntity
  8
10
100
AcDbLine
 10
276.7114002398368
 20
-86.01016783286018
 30
0.0
 11
276.7114002398368
 21
-85.99999403540556
 31
0.0
  0
LINE
  5
7EBD
330
1E
100
AcDbEntity
  8
10
100
AcDbLine
 10
276.7114002398368
 20
-86.09035915779717
 30
0.0
 11
276.7114002398368
 21
-86.04049543860588
 31
0.0
  0
LINE
  5
7EBE
330
1E
100
AcDbEntity
  8
10
100
AcDbLine
 10
276.7114002398368
 20
-86.15874161068871
 30
0.0
 11
276.7114002398368
 21
-86.09035915779717
 31
0.0
  0
LINE
  5
7EBF
330
1E
100
AcDbEntity
  8
10
100
AcDbLine
 10
276.7114002398368
 20
-86.8576814958215
 30
0.0
 11
276.7114002398368
 21
-86.7182641357022
 31
0.0
  0
LINE
  5
7EC0
330
1E
100
AcDbEntity
  8
10
100
AcDbLine
 10
276.7114002398368
 20
-86.24423784429842
 30
0.0
 11
276.7114002398368
 21
-86.15874161068871
 31
0.0
  0
ARC
  5
7EC1
330
1E
100
AcDbEntity
  8
10
100
AcDbCircle
 10
277.2113939380772
 20
-85.19999442889005
 30
0.0
 40
0.4999999906281084
100
AcDbArc
 50
90.0
 51
180.0
  0
ARC
  5
7EC2
330
1E
100
AcDbEntity
  8
10
100
AcDbCircle
 10
277.2113939380772
 20
-85.99999403540556
 30
0.0
 40
0.4999999906281084
100
AcDbArc
 50
180.0
 51
270.0
  0
LINE
  5
7EC3
330
1E
100
AcDbEntity
  8
10
100
AcDbLine
 10
283.7113846851838
 20
-84.69998861898611
 30
0.0
 11
283.7113846851838
 21
-84.49998871735717
 31
0.0
  0
LINE
  5
7EC4
330
1E
100
AcDbEntity
  8
10
100
AcDbLine
 10
283.7113846851838
 20
-84.69998861898611
 30
0.0
 11
283.7113846851838
 21
-82.50000000000005
 31
0.0
  0
LINE
  5
7EC5
330
1E
100
AcDbEntity
  8
10
100
AcDbLine
 10
288.7113943375691
 20
-87.49998724179031
 30
0.0
 11
288.7113943375691
 21
-89.49998625807898
 31
0.0
  0
LINE
  5
7EC6
330
1E
100
AcDbEntity
  8
10
100
AcDbLine
 10
288.7113943375691
 20
-90.04063881114694
 30
0.0
 11
288.7113943375691
 21
-90.15485179923876
 31
0.0
  0
LINE
  5
7EC7
330
1E
100
AcDbEntity
  8
10
100
AcDbLine
 10
288.7113943375691
 20
-89.64231041747103
 30
0.0
 11
288.7113943375691
 21
-89.78172777759029
 31
0.0
  0
LINE
  5
7EC8
330
1E
100
AcDbEntity
  8
10
100
AcDbLine
 10
288.7113943375691
 20
-90.15485179923876
 30
0.0
 11
288.7113943375691
 21
-90.25574195733051
 31
0.0
  0
LINE
  5
7EC9
330
1E
100
AcDbEntity
  8
10
100
AcDbLine
 10
288.7113943375691
 20
-89.9154042091459
 30
0.0
 11
288.7113943375691
 21
-90.04063881114694
 31
0.0
  0
LINE
  5
7ECA
330
1E
100
AcDbEntity
  8
10
100
AcDbLine
 10
288.7113943375691
 20
-90.45948436302305
 30
0.0
 11
288.7113943375691
 21
-90.48981196876871
 31
0.0
  0
LINE
  5
7ECB
330
1E
100
AcDbEntity
  8
10
100
AcDbLine
 10
288.7113943375691
 20
-90.40962064383171
 30
0.0
 11
288.7113943375691
 21
-90.45948436302305
 31
0.0
  0
LINE
  5
7ECC
330
1E
100
AcDbEntity
  8
10
100
AcDbLine
 10
288.7113943375691
 20
-90.34125030260387
 30
0.0
 11
288.7113943375691
 21
-90.40962064383171
 31
0.0
  0
LINE
  5
7ECD
330
1E
100
AcDbEntity
  8
10
100
AcDbLine
 10
288.7113943375691
 20
-90.48981196876871
 30
0.0
 11
288.7113943375691
 21
-90.49999787788694
 31
0.0
  0
LINE
  5
7ECE
330
1E
100
AcDbEntity
  8
10
100
AcDbLine
 10
288.7113943375691
 20
-90.25574195733051
 30
0.0
 11
288.7113943375691
 21
-90.34125030260387
 31
0.0
  0
LINE
  5
7ECF
330
1E
100
AcDbEntity
  8
10
100
AcDbLine
 10
288.7113943375691
 20
-89.49998625807898
 30
0.0
 11
288.7113943375691
 21
-89.64231041747103
 31
0.0
  0
LINE
  5
7ED0
330
1E
100
AcDbEntity
  8
10
100
AcDbLine
 10
288.7113943375691
 20
-90.49999787788694
 30
0.0
 11
288.7113943375691
 21
-91.99999108427169
 31
0.0
  0
LINE
  5
7ED1
330
1E
100
AcDbEntity
  8
10
100
AcDbLine
 10
288.7113943375691
 20
-89.78172777759029
 30
0.0
 11
288.7113943375691
 21
-89.9154042091459
 31
0.0
  0
ARC
  5
7ED2
330
1E
100
AcDbEntity
  8
10
100
AcDbCircle
 10
288.2113764160013
 20
-91.99999108427169
 30
0.0
 40
0.4999999906281084
100
AcDbArc
 50
270.0
 51
0.0
  0
ARC
  5
7ED3
330
1E
100
AcDbEntity
  8
10
100
AcDbCircle
 10
288.2113764160013
 20
-90.49999787788694
 30
0.0
 40
0.4999999906281084
100
AcDbArc
 50
0.0
 51
90.0
  0
LINE
  5
7ED4
330
1E
100
AcDbEntity
  8
10
100
AcDbLine
 10
288.7113943375691
 20
-85.49467120516515
 30
0.0
 11
288.7113943375691
 21
-85.62276415978439
 31
0.0
  0
LINE
  5
7ED5
330
1E
100
AcDbEntity
  8
10
100
AcDbLine
 10
288.7113943375691
 20
-85.95640415797793
 30
0.0
 11
288.7113943375691
 21
-85.98905720314183
 31
0.0
  0
LINE
  5
7ED6
330
1E
100
AcDbEntity
  8
10
100
AcDbLine
 10
288.7113943375691
 20
-84.68079163212228
 30
0.0
 11
288.7113943375691
 21
-84.85896631587825
 31
0.0
  0
LINE
  5
7ED7
330
1E
100
AcDbEntity
  8
10
100
AcDbLine
 10
288.7113943375691
 20
-85.82817797505873
 30
0.0
 11
288.7113943375691
 21
-85.90251936645939
 31
0.0
  0
LINE
  5
7ED8
330
1E
100
AcDbEntity
  8
10
100
AcDbLine
 10
288.7113943375691
 20
-85.03189664927967
 30
0.0
 11
288.7113943375691
 21
-85.19707551795368
 31
0.0
  0
LINE
  5
7ED9
330
1E
100
AcDbEntity
  8
10
100
AcDbLine
 10
288.7113943375691
 20
-85.19707551795368
 30
0.0
 11
288.7113943375691
 21
-85.35209270083678
 31
0.0
  0
LINE
  5
7EDA
330
1E
100
AcDbEntity
  8
10
100
AcDbLine
 10
288.7113943375691
 20
-85.90251936645939
 30
0.0
 11
288.7113943375691
 21
-85.95640415797793
 31
0.0
  0
LINE
  5
7EDB
330
1E
100
AcDbEntity
  8
10
100
AcDbLine
 10
288.7113943375691
 20
-86.99998143188627
 30
0.0
 11
288.7113943375691
 21
-85.36632390560958
 31
0.0
  0
LINE
  5
7EDC
330
1E
100
AcDbEntity
  8
10
100
AcDbLine
 10
288.7113943375691
 20
-84.85896631587825
 30
0.0
 11
288.7113943375691
 21
-85.03189664927967
 31
0.0
  0
LINE
  5
7EDD
330
1E
100
AcDbEntity
  8
10
100
AcDbLine
 10
288.7113943375691
 20
-87.49998724179031
 30
0.0
 11
288.7113943375691
 21
-85.9996427971601
 31
0.0
  0
LINE
  5
7EDE
330
1E
100
AcDbEntity
  8
10
100
AcDbLine
 10
288.7113943375691
 20
-85.62276415978439
 30
0.0
 11
288.7113943375691
 21
-85.73447003350342
 31
0.0
  0
LINE
  5
7EDF
330
1E
100
AcDbEntity
  8
10
100
AcDbLine
 10
288.7113943375691
 20
-85.73447003350342
 30
0.0
 11
288.7113943375691
 21
-85.82817797505873
 31
0.0
  0
LINE
  5
7EE0
330
1E
100
AcDbEntity
  8
10
100
AcDbLine
 10
288.7113943375691
 20
-85.35209270083678
 30
0.0
 11
288.7113943375691
 21
-85.49467120516515
 31
0.0
  0
LINE
  5
7EE1
330
1E
100
AcDbEntity
  8
10
100
AcDbLine
 10
288.7113943375691
 20
-84.49998871735717
 30
0.0
 11
288.7113943375691
 21
-84.68079163212228
 31
0.0
  0
LINE
  5
7EE2
330
1E
100
AcDbEntity
  8
10
100
AcDbLine
 10
288.7113943375691
 20
-85.98905720314183
 30
0.0
 11
288.7113943375691
 21
-85.99999403540556
 31
0.0
  0
ARC
  5
7EE3
330
1E
100
AcDbEntity
  8
10
100
AcDbCircle
 10
288.2113764160013
 20
-85.99999403540556
 30
0.0
 40
0.4999999906281084
100
AcDbArc
 50
270.0
 51
0.0
  0
ARC
  5
7EE4
330
1E
100
AcDbEntity
  8
10
100
AcDbCircle
 10
289.2113880358095
 20
-87.49998724179031
 30
0.0
 40
0.4999999906281084
100
AcDbArc
 50
180.0
 51
270.0
  0
LINE
  5
7EE5
330
1E
100
AcDbEntity
  8
10
100
AcDbLine
 10
358.2113904327611
 20
-89.99999206798301
 30
0.0
 11
326.2113819488143
 21
-89.99999206798301
 31
0.0
  0
LINE
  5
7EE6
330
1E
100
AcDbEntity
  8
10
100
AcDbLine
 10
312.7113825330336
 20
-87.99999305169427
 30
0.0
 11
312.7113825330336
 21
-89.49998625807898
 31
0.0
  0
LINE
  5
7EE7
330
1E
100
AcDbEntity
  8
10
100
AcDbLine
 10
326.2113819488143
 20
-89.99999206798301
 30
0.0
 11
312.7113825330336
 21
-89.99999206798301
 31
0.0
  0
LINE
  5
7EE8
330
1E
100
AcDbEntity
  8
10
100
AcDbLine
 10
312.7113825330336
 20
-98.9999876412822
 30
0.0
 11
312.7113825330336
 21
-94.07348367550648
 31
0.0
  0
LINE
  5
7EE9
330
1E
100
AcDbEntity
  8
10
100
AcDbLine
 10
322.7113776144773
 20
-93.80553734087705
 30
0.0
 11
322.7113776144773
 21
-98.9999876412822
 31
0.0
  0
LINE
  5
7EEA
330
1E
100
AcDbEntity
  8
10
100
AcDbLine
 10
322.7113776144773
 20
-99.99998714942655
 30
0.0
 11
313.7113941528417
 21
-99.99998714942655
 31
0.0
  0
ARC
  5
7EEB
330
1E
100
AcDbEntity
  8
10
100
AcDbCircle
 10
313.7113941528417
 20
-98.9999876412822
 30
0.0
 40
0.9999999812562167
100
AcDbArc
 50
180.0
 51
270.0
  0
LINE
  5
7EEC
330
1E
100
AcDbEntity
  8
10
100
AcDbLine
 10
322.7113776144773
 20
-99.14231180067424
 30
0.0
 11
322.7113776144773
 21
-99.28172916079354
 31
0.0
  0
LINE
  5
7EED
330
1E
100
AcDbEntity
  8
10
100
AcDbLine
 10
322.7113776144773
 20
-99.95948574622623
 30
0.0
 11
322.7113776144773
 21
-99.98981335197193
 31
0.0
  0
LINE
  5
7EEE
330
1E
100
AcDbEntity
  8
10
100
AcDbLine
 10
322.7113776144773
 20
-99.75574334053371
 30
0.0
 11
322.7113776144773
 21
-99.84123957414348
 31
0.0
  0
LINE
  5
7EEF
330
1E
100
AcDbEntity
  8
10
100
AcDbLine
 10
322.7113776144773
 20
-99.65485318244192
 30
0.0
 11
322.7113776144773
 21
-99.75574334053371
 31
0.0
  0
LINE
  5
7EF0
330
1E
100
AcDbEntity
  8
10
100
AcDbLine
 10
322.7113776144773
 20
-99.98981335197193
 30
0.0
 11
322.7113776144773
 21
-99.99998714942655
 31
0.0
  0
LINE
  5
7EF1
330
1E
100
AcDbEntity
  8
10
100
AcDbLine
 10
322.7113776144773
 20
-99.84123957414348
 30
0.0
 11
322.7113776144773
 21
-99.90962202703492
 31
0.0
  0
LINE
  5
7EF2
330
1E
100
AcDbEntity
  8
10
100
AcDbLine
 10
322.7113776144773
 20
-99.41540559234908
 30
0.0
 11
322.7113776144773
 21
-99.54062808268652
 31
0.0
  0
LINE
  5
7EF3
330
1E
100
AcDbEntity
  8
10
100
AcDbLine
 10
322.7113776144773
 20
-98.9999876412822
 30
0.0
 11
322.7113776144773
 21
-99.14231180067424
 31
0.0
  0
LINE
  5
7EF4
330
1E
100
AcDbEntity
  8
10
100
AcDbLine
 10
322.7113776144773
 20
-99.54062808268652
 30
0.0
 11
322.7113776144773
 21
-99.65485318244192
 31
0.0
  0
LINE
  5
7EF5
330
1E
100
AcDbEntity
  8
10
100
AcDbLine
 10
322.7113776144773
 20
-99.28172916079354
 30
0.0
 11
322.7113776144773
 21
-99.41540559234908
 31
0.0
  0
LINE
  5
7EF6
330
1E
100
AcDbEntity
  8
10
100
AcDbLine
 10
322.7113776144773
 20
-99.90962202703492
 30
0.0
 11
322.7113776144773
 21
-99.95948574622623
 31
0.0
  0
LINE
  5
7EF7
330
1E
100
AcDbEntity
  8
10
100
AcDbLine
 10
322.7113776144773
 20
-90.00745285278304
 30
0.0
 11
313.7113941528417
 21
-90.00745285278304
 31
0.0
  0
LINE
  5
7EF8
330
1E
100
AcDbEntity
  8
10
100
AcDbLine
 10
322.7113776144773
 20
-91.20745226255628
 30
0.0
 11
313.7113941528417
 21
-91.20745226255628
 31
0.0
  0
LINE
  5
7EF9
330
1E
100
AcDbEntity
  8
10
100
AcDbLine
 10
322.7113776144773
 20
-93.80553734087705
 30
0.0
 11
313.7113941528417
 21
-93.80553734087705
 31
0.0
  0
LINE
  5
7EFA
330
1E
100
AcDbEntity
  8
10
100
AcDbLine
 10
312.7113825330336
 20
-91.4754107088494
 30
0.0
 11
312.7113825330336
 21
-90.01243074653764
 31
0.0
  0
LINE
  5
7EFB
330
1E
100
AcDbEntity
  8
10
100
AcDbLine
 10
312.7215563304883
 20
-94.0353561583789
 30
0.0
 11
312.7518839362343
 21
-93.99799167606035
 31
0.0
  0
LINE
  5
7EFC
330
1E
100
AcDbEntity
  8
10
100
AcDbLine
 10
312.7518839362343
 20
-91.39991870940326
 30
0.0
 11
312.8017597670889
 21
-91.36409240836659
 31
0.0
  0
LINE
  5
7EFD
330
1E
100
AcDbEntity
  8
10
100
AcDbLine
 10
313.2959640901114
 20
-91.23167558982919
 30
0.0
 11
313.4296526333303
 21
-91.21831642483819
 31
0.0
  0
LINE
  5
7EFE
330
1E
100
AcDbEntity
  8
10
100
AcDbLine
 10
312.9556263419266
 20
-93.89800989274135
 30
0.0
 11
313.0565165000184
 21
-93.87097665950484
 31
0.0
  0
LINE
  5
7EFF
330
1E
100
AcDbEntity
  8
10
100
AcDbLine
 10
312.7518839362343
 20
-90.01103790521945
 30
0.0
 11
312.8017597670889
 21
-90.01037176371944
 31
0.0
  0
LINE
  5
7F00
330
1E
100
AcDbEntity
  8
10
100
AcDbLine
 10
312.7113825330336
 20
-89.81174048008147
 30
0.0
 11
312.7113825330336
 21
-89.7169303771353
 31
0.0
  0
LINE
  5
7F01
330
1E
100
AcDbEntity
  8
10
100
AcDbLine
 10
312.8017597670889
 20
-93.96217748668735
 30
0.0
 11
312.8701422199803
 21
-93.92861606675078
 31
0.0
  0
LINE
  5
7F02
330
1E
100
AcDbEntity
  8
10
100
AcDbLine
 10
313.1707537114373
 20
-91.24998842524751
 30
0.0
 11
313.2959640901114
 21
-91.23167558982919
 31
0.0
  0
LINE
  5
7F03
330
1E
100
AcDbEntity
  8
10
100
AcDbLine
 10
312.7113825330336
 20
-89.9874564961193
 30
0.0
 11
312.7113825330336
 21
-89.95047958703706
 31
0.0
  0
LINE
  5
7F04
330
1E
100
AcDbEntity
  8
10
100
AcDbLine
 10
313.5690821051133
 20
-90.00751341110122
 30
0.0
 11
313.7113941528417
 21
-90.00745285278304
 31
0.0
  0
LINE
  5
7F05
330
1E
100
AcDbEntity
  8
10
100
AcDbLine
 10
313.0565165000184
 20
-93.87097665950484
 30
0.0
 11
313.1707537114373
 21
-93.84807350356823
 31
0.0
  0
LINE
  5
7F06
330
1E
100
AcDbEntity
  8
10
100
AcDbLine
 10
313.4296526333303
 20
-90.00765875106486
 30
0.0
 11
313.5690821051133
 21
-90.00751341110122
 31
0.0
  0
LINE
  5
7F07
330
1E
100
AcDbEntity
  8
10
100
AcDbLine
 10
312.8017597670889
 20
-91.36409240836659
 30
0.0
 11
312.8701422199803
 21
-91.33054310009358
 31
0.0
  0
LINE
  5
7F08
330
1E
100
AcDbEntity
  8
10
100
AcDbLine
 10
312.8701422199803
 20
-91.33054310009358
 30
0.0
 11
312.9556263419266
 21
-91.29993692608428
 31
0.0
  0
LINE
  5
7F09
330
1E
100
AcDbEntity
  8
10
100
AcDbLine
 10
312.9556263419266
 20
-90.00917270901945
 30
0.0
 11
313.0565165000184
 21
-90.0086761308103
 31
0.0
  0
LINE
  5
7F0A
330
1E
100
AcDbEntity
  8
10
100
AcDbLine
 10
312.8701422199803
 20
-93.92861606675078
 30
0.0
 11
312.9556263419266
 21
-93.89800989274135
 31
0.0
  0
LINE
  5
7F0B
330
1E
100
AcDbEntity
  8
10
100
AcDbLine
 10
312.7215563304883
 20
-90.01172827004671
 30
0.0
 11
312.7518839362343
 21
-90.01103790521945
 31
0.0
  0
LINE
  5
7F0C
330
1E
100
AcDbEntity
  8
10
100
AcDbLine
 10
312.7113825330336
 20
-94.07348367550648
 30
0.0
 11
312.7215563304883
 21
-94.0353561583789
 31
0.0
  0
LINE
  5
7F0D
330
1E
100
AcDbEntity
  8
10
100
AcDbLine
 10
313.0565165000184
 20
-90.0086761308103
 30
0.0
 11
313.1707537114373
 21
-90.00825222258308
 31
0.0
  0
LINE
  5
7F0E
330
1E
100
AcDbEntity
  8
10
100
AcDbLine
 10
313.4296526333303
 20
-93.8163893914953
 30
0.0
 11
313.5690821051133
 21
-93.80826246519523
 31
0.0
  0
LINE
  5
7F0F
330
1E
100
AcDbEntity
  8
10
100
AcDbLine
 10
312.7113825330336
 20
-90.01243074653764
 30
0.0
 11
312.7215563304883
 21
-90.01172827004671
 31
0.0
  0
LINE
  5
7F10
330
1E
100
AcDbEntity
  8
10
100
AcDbLine
 10
312.8701422199803
 20
-90.00974195721029
 30
0.0
 11
312.9556263419266
 21
-90.00917270901945
 31
0.0
  0
LINE
  5
7F11
330
1E
100
AcDbEntity
  8
10
100
AcDbLine
 10
312.7215563304883
 20
-91.4372710800581
 30
0.0
 11
312.7518839362343
 21
-91.39991870940326
 31
0.0
  0
LINE
  5
7F12
330
1E
100
AcDbEntity
  8
10
100
AcDbLine
 10
312.8017597670889
 20
-90.01037176371944
 30
0.0
 11
312.8701422199803
 21
-90.00974195721029
 31
0.0
  0
LINE
  5
7F13
330
1E
100
AcDbEntity
  8
10
100
AcDbLine
 10
312.9556263419266
 20
-91.29993692608428
 30
0.0
 11
313.0565165000184
 21
-91.2729036928477
 31
0.0
  0
LINE
  5
7F14
330
1E
100
AcDbEntity
  8
10
100
AcDbLine
 10
313.0565165000184
 20
-91.2729036928477
 30
0.0
 11
313.1707537114373
 21
-91.24998842524751
 31
0.0
  0
LINE
  5
7F15
330
1E
100
AcDbEntity
  8
10
100
AcDbLine
 10
312.7113825330336
 20
-94.07348367550648
 30
0.0
 11
312.7113825330336
 21
-91.4754107088494
 31
0.0
  0
LINE
  5
7F16
330
1E
100
AcDbEntity
  8
10
100
AcDbLine
 10
312.7113825330336
 20
-89.95047958703706
 30
0.0
 11
312.7113825330336
 21
-89.89090231360941
 31
0.0
  0
LINE
  5
7F17
330
1E
100
AcDbEntity
  8
10
100
AcDbLine
 10
313.2959640901114
 20
-93.82974855648631
 30
0.0
 11
313.4296526333303
 21
-93.8163893914953
 31
0.0
  0
LINE
  5
7F18
330
1E
100
AcDbEntity
  8
10
100
AcDbLine
 10
312.7113825330336
 20
-89.99999206798301
 30
0.0
 11
312.7113825330336
 21
-90.01243074653764
 31
0.0
  0
LINE
  5
7F19
330
1E
100
AcDbEntity
  8
10
100
AcDbLine
 10
312.7113825330336
 20
-89.7169303771353
 30
0.0
 11
312.7113825330336
 21
-89.6112561119072
 31
0.0
  0
LINE
  5
7F1A
330
1E
100
AcDbEntity
  8
10
100
AcDbLine
 10
313.5690821051133
 20
-91.21018949853812
 30
0.0
 11
313.7113941528417
 21
-91.20745226255628
 31
0.0
  0
LINE
  5
7F1B
330
1E
100
AcDbEntity
  8
10
100
AcDbLine
 10
313.1707537114373
 20
-90.00825222258308
 30
0.0
 11
313.2959640901114
 21
-90.00791309600122
 31
0.0
  0
LINE
  5
7F1C
330
1E
100
AcDbEntity
  8
10
100
AcDbLine
 10
313.4296526333303
 20
-91.21831642483819
 30
0.0
 11
313.5690821051133
 21
-91.21018949853812
 31
0.0
  0
LINE
  5
7F1D
330
1E
100
AcDbEntity
  8
10
100
AcDbLine
 10
312.7113825330336
 20
-91.4754107088494
 30
0.0
 11
312.7215563304883
 21
-91.4372710800581
 31
0.0
  0
LINE
  5
7F1E
330
1E
100
AcDbEntity
  8
10
100
AcDbLine
 10
312.7518839362343
 20
-93.99799167606035
 30
0.0
 11
312.8017597670889
 21
-93.96217748668735
 31
0.0
  0
LINE
  5
7F1F
330
1E
100
AcDbEntity
  8
10
100
AcDbLine
 10
312.7113825330336
 20
-89.99999206798301
 30
0.0
 11
312.7113825330336
 21
-89.9874564961193
 31
0.0
  0
LINE
  5
7F20
330
1E
100
AcDbEntity
  8
10
100
AcDbLine
 10
313.1707537114373
 20
-93.84807350356823
 30
0.0
 11
313.2959640901114
 21
-93.82974855648631
 31
0.0
  0
LINE
  5
7F21
330
1E
100
AcDbEntity
  8
10
100
AcDbLine
 10
313.2959640901114
 20
-90.00791309600122
 30
0.0
 11
313.4296526333303
 21
-90.00765875106486
 31
0.0
  0
LINE
  5
7F22
330
1E
100
AcDbEntity
  8
10
100
AcDbLine
 10
312.7113825330336
 20
-89.89090231360941
 30
0.0
 11
312.7113825330336
 21
-89.81174048008147
 31
0.0
  0
LINE
  5
7F23
330
1E
100
AcDbEntity
  8
10
100
AcDbLine
 10
312.7113825330336
 20
-89.6112561119072
 30
0.0
 11
312.7113825330336
 21
-89.49998625807898
 31
0.0
  0
LINE
  5
7F24
330
1E
100
AcDbEntity
  8
10
100
AcDbLine
 10
313.5690821051133
 20
-93.80826246519523
 30
0.0
 11
313.7113941528417
 21
-93.80553734087705
 31
0.0
  0
LINE
  5
7F25
330
1E
100
AcDbEntity
  8
10
100
AcDbLine
 10
322.7113776144773
 20
-90.00745285278304
 30
0.0
 11
322.7113776144773
 21
-91.20745226255628
 31
0.0
  0
LINE
  5
7F26
330
1E
100
AcDbEntity
  8
10
100
AcDbLine
 10
322.7113776144773
 20
-91.20745226255628
 30
0.0
 11
322.7113776144773
 21
-93.80553734087705
 31
0.0
  0
LINE
  5
7F27
330
1E
100
AcDbEntity
  8
10
100
AcDbLine
 10
322.7113776144773
 20
-89.99999206798301
 30
0.0
 11
322.7113776144773
 21
-90.00745285278304
 31
0.0
  0
ARC
  5
7F28
330
1E
100
AcDbEntity
  8
10
100
AcDbCircle
 10
326.2113819488143
 20
-89.49998625807898
 30
0.0
 40
0.4999999906281084
100
AcDbArc
 50
180.0
 51
270.0
  0
LINE
  5
7F29
330
1E
100
AcDbEntity
  8
10
100
AcDbLine
 10
358.7113841310013
 20
-87.99999305169427
 30
0.0
 11
358.7113841310013
 21
-89.49998625807898
 31
0.0
  0
ARC
  5
7F2A
330
1E
100
AcDbEntity
  8
10
100
AcDbCircle
 10
358.2113904327611
 20
-89.49998625807898
 30
0.0
 40
0.4999999906281084
100
AcDbArc
 50
270.0
 51
0.0
  0
DIMENSION
  5
7F2B
330
1E
100
AcDbEntity
  8
30
100
AcDbDimension
  2
*D14
 10
-80.25299098005456
 20
51.00000000000001
 30
0.0
 11
-83.25299098005457
 21
-0.0000000000000089
 31
0.0
 70
    32
  3
STANDARD
100
AcDbAlignedDimension
 13
-52.49999999999993
 23
-51.0
 33
0.0
 14
-52.49999999999993
 24
51.0
 34
0.0
 50
90.0
100
AcDbRotatedDimension
  0
DIMENSION
  5
7F2C
330
1E
100
AcDbEntity
  8
30
100
AcDbDimension
  2
*D15
 10
-65.5029909800545
 20
-22.49999999999999
 30
0.0
 11
-68.5029909800545
 21
-0.0000000000000063
 31
0.0
 70
    32
  3
STANDARD
100
AcDbAlignedDimension
 13
-51.5
 23
22.5
 33
0.0
 14
-51.5
 24
-22.5
 34
0.0
 50
90.0
100
AcDbRotatedDimension
  0
LINE
  5
7F2D
330
1E
100
AcDbEntity
  8
10
100
AcDbLine
 10
207.7113846851835
 20
14.16543683943007
 30
0.0
 11
199.1575895036946
 21
20.15486870581054
 31
0.0
  0
LINE
  5
7F2E
330
1E
100
AcDbEntity
  8
10
100
AcDbLine
 10
207.7113846851835
 20
6.840789306861267
 30
0.0
 11
195.7161308855884
 21
15.23995644007664
 31
0.0
  0
ARC
  5
7F30
330
1E
100
AcDbEntity
  8
30
100
AcDbCircle
 10
222.7113846851838
 20
0.0
 30
0.0
 40
31.00000000000001
100
AcDbArc
 50
150.5534441956585
 51
180.0
  0
LINE
  5
7F33
330
1E
100
AcDbEntity
  8
10
100
AcDbLine
 10
195.7161308855884
 20
15.23995644007664
 30
0.0
 11
199.1575895036946
 21
20.15486870581054
 31
0.0
  0
LINE
  5
7F34
330
1E
100
AcDbEntity
  8
10
100
AcDbLine
 10
358.7113841310013
 20
88.0000051633578
 30
0.0
 11
358.7113841310013
 21
55.50000298117078
 31
0.0
  0
LINE
  5
7F35
330
1E
100
AcDbEntity
  8
10
100
AcDbLine
 10
325.7113882505742
 20
49.50000593230471
 30
0.0
 11
325.7113882505742
 21
89.5000104814062
 31
0.0
  0
LINE
  5
7F36
330
1E
100
AcDbEntity
  8
10
100
AcDbLine
 10
288.7113943375691
 20
90.00000417964656
 30
0.0
 11
288.7113943375691
 21
48.49999431249671
 31
0.0
  0
LINE
  5
7F37
330
1E
100
AcDbEntity
  8
10
100
AcDbLine
 10
276.7114002398368
 20
87.0000419902044
 30
0.0
 11
276.7114002398368
 21
85.69998812713036
 31
0.0
  0
LINE
  5
7F38
330
1E
100
AcDbEntity
  8
10
100
AcDbLine
 10
276.7114002398368
 20
86.09035915779712
 30
0.0
 11
276.7114002398368
 21
86.04049543860581
 31
0.0
  0
LINE
  5
7F39
330
1E
100
AcDbEntity
  8
10
100
AcDbLine
 10
283.7113846851838
 20
86.4999877336459
 30
0.0
 11
283.7113846851838
 21
82.5
 31
0.0
  0
ARC
  5
7F3A
330
1E
100
AcDbEntity
  8
10
100
AcDbCircle
 10
-277.2113939380772
 20
85.9999940354055
 30
0.0
 40
0.4999999906281084
210
0.0
220
0.0
230
-1.0
100
AcDbArc
 50
0.0
 51
90.0
  0
ARC
  5
7F3B
330
1E
100
AcDbEntity
  8
10
100
AcDbCircle
 10
-288.2113764160013
 20
85.9999940354055
 30
0.0
 40
0.4999999906281084
210
0.0
220
0.0
230
-1.0
100
AcDbArc
 50
90.0
 51
180.0
  0
LINE
  5
7F3C
330
1E
100
AcDbEntity
  8
17
100
AcDbLine
 10
368.7113841310012
 20
72.00000000000007
 30
0.0
 11
273.7113841310014
 21
72.00000000000007
 31
0.0
  0
LINE
  5
7F3D
330
1E
100
AcDbEntity
  8
10
100
AcDbLine
 10
290.7113933538578
 20
-49.99998751888146
 30
0.0
 11
325.7111702406285
 21
-49.99998751888146
 31
0.0
  0
LINE
  5
7F3E
330
1E
100
AcDbEntity
  8
10
100
AcDbLine
 10
289.2113880358095
 20
-57.49998988579591
 30
0.0
 11
325.7113882505742
 21
-57.49998988579591
 31
0.0
  0
LINE
  5
7F3F
330
1E
100
AcDbEntity
  8
10
100
AcDbLine
 10
310.7038742852902
 20
-47.49999480435239
 30
0.0
 11
314.2110245011731
 21
-47.49999480435239
 31
0.0
  0
LINE
  5
7F40
330
1E
100
AcDbEntity
  8
10
100
AcDbLine
 10
324.5042914059096
 20
-49.49999382064111
 30
0.0
 11
288.7113943375691
 21
-49.49999382064111
 31
0.0
  0
LINE
  5
7F41
330
1E
100
AcDbEntity
  8
10
100
AcDbLine
 10
325.7113882505742
 20
57.50000199745953
 30
0.0
 11
289.2113880358095
 21
57.50000199745953
 31
0.0
  0
LINE
  5
7F42
330
1E
100
AcDbEntity
  8
10
100
AcDbLine
 10
325.7113882505742
 20
49.99999963054506
 30
0.0
 11
290.7113933538578
 21
49.99999963054506
 31
0.0
  0
LINE
  5
7F43
330
1E
100
AcDbEntity
  8
10
100
AcDbLine
 10
288.7113943375691
 20
49.50000593230471
 30
0.0
 11
325.7113882505742
 21
49.50000593230471
 31
0.0
  0
LINE
  5
7F44
330
1E
100
AcDbEntity
  8
10
100
AcDbLine
 10
314.2113878510821
 20
47.50000691601599
 30
0.0
 11
310.7036804986721
 21
47.50000691601599
 31
0.0
  0
ARC
  5
7F45
330
1E
100
AcDbEntity
  8
10
100
AcDbCircle
 10
309.7113961202643
 20
45.76384838038393
 30
0.0
 40
1.999999962512433
100
AcDbArc
 50
0.0
 51
79.99999963883303
  0
ARC
  5
7F46
330
1E
100
AcDbEntity
  8
10
100
AcDbCircle
 10
309.7113961202643
 20
-45.76383626872032
 30
0.0
 40
1.999999962512433
100
AcDbArc
 50
280.0000003611669
 51
0.0
  0
LINE
  5
7F47
330
1E
100
AcDbEntity
  8
10
100
AcDbLine
 10
207.7113846851835
 20
22.5
 30
0.0
 11
207.7113846851835
 21
-22.5
 31
0.0
  0
LINE
  5
7F48
330
1E
100
AcDbEntity
  8
10
100
AcDbLine
 10
215.7113846851838
 20
51.0
 30
0.0
 11
215.7113846851838
 21
-51.0
 31
0.0
  0
LINE
  5
7F49
330
1E
100
AcDbEntity
  8
10
100
AcDbLine
 10
211.7113846851838
 20
22.5
 30
0.0
 11
211.7113846851838
 21
-22.5
 31
0.0
  0
LINE
  5
7F4A
330
1E
100
AcDbEntity
  8
10
100
AcDbLine
 10
215.7113846851838
 20
-51.0
 30
0.0
 11
222.7113846851838
 21
-51.0
 31
0.0
  0
LINE
  5
7F4B
330
1E
100
AcDbEntity
  8
10
100
AcDbLine
 10
207.7113846851835
 20
-22.5
 30
0.0
 11
215.7113846851838
 21
-22.5
 31
0.0
  0
ARC
  5
7F4C
330
1E
100
AcDbEntity
  8
10
100
AcDbCircle
 10
289.2113880358095
 20
-50.49999332878548
 30
0.0
 40
0.4999999906281084
100
AcDbArc
 50
90.0
 51
180.0
  0
ARC
  5
7F4D
330
1E
100
AcDbEntity
  8
10
100
AcDbCircle
 10
290.7113933538578
 20
-51.99999864683383
 30
0.0
 40
1.999999962512433
100
AcDbArc
 50
90.0
 51
180.0
  0
LINE
  5
7F4E
330
1E
100
AcDbEntity
  8
10
100
AcDbLine
 10
288.7113943375691
 20
-56.49989348434253
 30
0.0
 11
288.7113943375691
 21
-53.00005871329631
 31
0.0
  0
ARC
  5
7F4F
330
1E
100
AcDbEntity
  8
10
100
AcDbCircle
 10
289.2113880358095
 20
-51.49999283692983
 30
0.0
 40
0.4999999906281084
100
AcDbArc
 50
180.0
 51
199.7746885488344
  0
ARC
  5
7F50
330
1E
100
AcDbEntity
  8
10
100
AcDbCircle
 10
289.2113880358095
 20
-57.99999569569997
 30
0.0
 40
0.4999999906281084
100
AcDbArc
 50
90.0
 51
180.0
  0
LINE
  5
7F51
330
1E
100
AcDbEntity
  8
10
100
AcDbLine
 10
305.7113980876867
 20
-48.49999431249671
 30
0.0
 11
288.7113943375691
 21
-48.49999431249671
 31
0.0
  0
LINE
  5
7F52
330
1E
100
AcDbEntity
  8
10
100
AcDbLine
 10
289.3088627047558
 20
-49.99998751888146
 30
0.0
 11
289.3832040961563
 21
-49.99998751888146
 31
0.0
  0
LINE
  5
7F53
330
1E
100
AcDbEntity
  8
10
100
AcDbLine
 10
290.0142944415976
 20
-49.99998751888146
 30
0.0
 11
290.1794733102718
 21
-49.99998751888146
 31
0.0
  0
LINE
  5
7F54
330
1E
100
AcDbEntity
  8
10
100
AcDbLine
 10
289.2549658015733
 20
-49.99998751888146
 30
0.0
 11
289.3088627047558
 21
-49.99998751888146
 31
0.0
  0
LINE
  5
7F55
330
1E
100
AcDbEntity
  8
10
100
AcDbLine
 10
289.8592893703784
 20
-49.99998751888146
 30
0.0
 11
290.0142944415976
 21
-49.99998751888146
 31
0.0
  0
LINE
  5
7F56
330
1E
100
AcDbEntity
  8
10
100
AcDbLine
 10
289.4769241493753
 20
-49.99998751888146
 30
0.0
 11
289.5886179114306
 21
-49.99998751888146
 31
0.0
  0
LINE
  5
7F57
330
1E
100
AcDbEntity
  8
10
100
AcDbLine
 10
289.3832040961563
 20
-49.99998751888146
 30
0.0
 11
289.4769241493753
 21
-49.99998751888146
 31
0.0
  0
LINE
  5
7F58
330
1E
100
AcDbEntity
  8
10
100
AcDbLine
 10
290.1794733102718
 20
-49.99998751888146
 30
0.0
 11
290.3524036436731
 21
-49.99998751888146
 31
0.0
  0
LINE
  5
7F59
330
1E
100
AcDbEntity
  8
10
100
AcDbLine
 10
289.5886179114306
 20
-49.99998751888146
 30
0.0
 11
289.71671086605
 21
-49.99998751888146
 31
0.0
  0
LINE
  5
7F5A
330
1E
100
AcDbEntity
  8
10
100
AcDbLine
 10
289.2223369797368
 20
-49.99998751888146
 30
0.0
 11
289.2549658015733
 21
-49.99998751888146
 31
0.0
  0
LINE
  5
7F5B
330
1E
100
AcDbEntity
  8
10
100
AcDbLine
 10
290.3524036436731
 20
-49.99998751888146
 30
0.0
 11
290.5305904390926
 21
-49.99998751888146
 31
0.0
  0
LINE
  5
7F5C
330
1E
100
AcDbEntity
  8
10
100
AcDbLine
 10
289.71671086605
 20
-49.99998751888146
 30
0.0
 11
289.8592893703784
 21
-49.99998751888146
 31
0.0
  0
LINE
  5
7F5D
330
1E
100
AcDbEntity
  8
10
100
AcDbLine
 10
289.2113880358095
 20
-49.99998751888146
 30
0.0
 11
289.2223369797368
 21
-49.99998751888146
 31
0.0
  0
LINE
  5
7F5E
330
1E
100
AcDbEntity
  8
10
100
AcDbLine
 10
290.5305904390926
 20
-49.99998751888146
 30
0.0
 11
290.7113933538578
 21
-49.99998751888146
 31
0.0
  0
LINE
  5
7F5F
330
1E
100
AcDbEntity
  8
10
100
AcDbLine
 10
310.0586859633763
 20
-47.73344712094515
 30
0.0
 11
305.7113980876867
 21
-48.49999431249671
 31
0.0
  0
LINE
  5
7F60
330
1E
100
AcDbEntity
  8
10
100
AcDbLine
 10
283.7113846851838
 20
82.5
 30
0.0
 11
222.7113846851838
 21
82.5
 31
0.0
  0
LINE
  5
7F61
330
1E
100
AcDbEntity
  8
10
100
AcDbLine
 10
207.7113846851835
 20
22.5
 30
0.0
 11
215.7113846851838
 21
22.5
 31
0.0
  0
LINE
  5
7F62
330
1E
100
AcDbEntity
  8
10
100
AcDbLine
 10
222.7113846851838
 20
82.5
 30
0.0
 11
222.7113846851838
 21
51.0
 31
0.0
  0
LINE
  5
7F63
330
1E
100
AcDbEntity
  8
10
100
AcDbLine
 10
215.7113846851838
 20
51.0
 30
0.0
 11
222.7113846851838
 21
51.0
 31
0.0
  0
LINE
  5
7F64
330
1E
100
AcDbEntity
  8
10
100
AcDbLine
 10
277.2113939380772
 20
84.699988618986
 30
0.0
 11
283.7113846851838
 21
84.699988618986
 31
0.0
  0
LINE
  5
7F65
330
1E
100
AcDbEntity
  8
10
100
AcDbLine
 10
276.7114002398368
 20
86.04049543860581
 30
0.0
 11
276.7114002398368
 21
86.01016783286011
 31
0.0
  0
LINE
  5
7F66
330
1E
100
AcDbEntity
  8
10
100
AcDbLine
 10
276.7114002398368
 20
85.9999940354055
 30
0.0
 11
276.7114002398368
 21
85.19999442889002
 31
0.0
  0
LINE
  5
7F67
330
1E
100
AcDbEntity
  8
10
100
AcDbLine
 10
276.7114002398368
 20
86.01016783286011
 30
0.0
 11
276.7114002398368
 21
85.9999940354055
 31
0.0
  0
ARC
  5
7F68
330
1E
100
AcDbEntity
  8
10
100
AcDbCircle
 10
-277.2113939380772
 20
85.19999442889002
 30
0.0
 40
0.4999999906281084
210
0.0
220
0.0
230
-1.0
100
AcDbArc
 50
270.0
 51
0.0
  0
LINE
  5
7F69
330
1E
100
AcDbEntity
  8
10
100
AcDbLine
 10
283.7113846851838
 20
84.699988618986
 30
0.0
 11
283.7113846851838
 21
84.49998871735715
 31
0.0
  0
LINE
  5
7F6A
330
1E
100
AcDbEntity
  8
10
100
AcDbLine
 10
288.7113943375691
 20
48.49999431249671
 30
0.0
 11
305.7113980876867
 21
48.49999431249671
 31
0.0
  0
LINE
  5
7F6B
330
1E
100
AcDbEntity
  8
10
100
AcDbLine
 10
289.2549658015733
 20
49.99999963054506
 30
0.0
 11
289.2223369797368
 21
49.99999963054506
 31
0.0
  0
LINE
  5
7F6C
330
1E
100
AcDbEntity
  8
10
100
AcDbLine
 10
290.1794733102718
 20
49.99999963054506
 30
0.0
 11
290.0142944415976
 21
49.99999963054506
 31
0.0
  0
LINE
  5
7F6D
330
1E
100
AcDbEntity
  8
10
100
AcDbLine
 10
289.4769241493753
 20
49.99999963054506
 30
0.0
 11
289.3832040961563
 21
49.99999963054506
 31
0.0
  0
LINE
  5
7F6E
330
1E
100
AcDbEntity
  8
10
100
AcDbLine
 10
290.3524036436731
 20
49.99999963054506
 30
0.0
 11
290.1794733102718
 21
49.99999963054506
 31
0.0
  0
LINE
  5
7F6F
330
1E
100
AcDbEntity
  8
10
100
AcDbLine
 10
289.2223369797368
 20
49.99999963054506
 30
0.0
 11
289.2113880358095
 21
49.99999963054506
 31
0.0
  0
LINE
  5
7F70
330
1E
100
AcDbEntity
  8
10
100
AcDbLine
 10
289.3832040961563
 20
49.99999963054506
 30
0.0
 11
289.3088627047558
 21
49.99999963054506
 31
0.0
  0
LINE
  5
7F71
330
1E
100
AcDbEntity
  8
10
100
AcDbLine
 10
289.3088627047558
 20
49.99999963054506
 30
0.0
 11
289.2549658015733
 21
49.99999963054506
 31
0.0
  0
LINE
  5
7F72
330
1E
100
AcDbEntity
  8
10
100
AcDbLine
 10
290.5305904390926
 20
49.99999963054506
 30
0.0
 11
290.3524036436731
 21
49.99999963054506
 31
0.0
  0
LINE
  5
7F73
330
1E
100
AcDbEntity
  8
10
100
AcDbLine
 10
289.5886179114306
 20
49.99999963054506
 30
0.0
 11
289.4769241493753
 21
49.99999963054506
 31
0.0
  0
LINE
  5
7F74
330
1E
100
AcDbEntity
  8
10
100
AcDbLine
 10
290.0142944415976
 20
49.99999963054506
 30
0.0
 11
289.8592893703784
 21
49.99999963054506
 31
0.0
  0
LINE
  5
7F75
330
1E
100
AcDbEntity
  8
10
100
AcDbLine
 10
289.8592893703784
 20
49.99999963054506
 30
0.0
 11
289.71671086605
 21
49.99999963054506
 31
0.0
  0
LINE
  5
7F76
330
1E
100
AcDbEntity
  8
10
100
AcDbLine
 10
290.7113933538578
 20
49.99999963054506
 30
0.0
 11
290.5305904390926
 21
49.99999963054506
 31
0.0
  0
LINE
  5
7F77
330
1E
100
AcDbEntity
  8
10
100
AcDbLine
 10
289.71671086605
 20
49.99999963054506
 30
0.0
 11
289.5886179114306
 21
49.99999963054506
 31
0.0
  0
ARC
  5
7F78
330
1E
100
AcDbEntity
  8
10
100
AcDbCircle
 10
290.7113933538578
 20
51.99999864683377
 30
0.0
 40
1.999999962512433
100
AcDbArc
 50
180.0
 51
270.0
  0
ARC
  5
7F79
330
1E
100
AcDbEntity
  8
10
100
AcDbCircle
 10
289.2113880358095
 20
50.50001755211269
 30
0.0
 40
0.4999999906281084
100
AcDbArc
 50
180.0
 51
270.0
  0
ARC
  5
7F7A
330
1E
100
AcDbEntity
  8
10
100
AcDbCircle
 10
289.2113880358095
 20
57.99999569569997
 30
0.0
 40
0.4999999906281084
100
AcDbArc
 50
180.0
 51
270.0
  0
LINE
  5
7F7B
330
1E
100
AcDbEntity
  8
10
100
AcDbLine
 10
305.7113980876867
 20
48.49999431249671
 30
0.0
 11
310.0586859633763
 21
47.73347134427246
 31
0.0
  0
DIMENSION
  5
7F7C
330
1E
100
AcDbEntity
  8
30
100
AcDbDimension
  2
*D16
 10
368.7083937051291
 20
53.99999766312252
 30
0.0
 11
365.708393705129
 21
0.000000000000056
 31
0.0
 70
    32
  3
STANDARD
100
AcDbAlignedDimension
 13
358.2113904327611
 23
-53.99999766312254
 33
0.0
 14
358.2113904327611
 24
53.99999766312254
 34
0.0
 50
270.0
100
AcDbRotatedDimension
  0
LINE
  5
7F7D
330
1E
100
AcDbEntity
  8
10
100
AcDbLine
 10
331.7113852994401
 20
53.99999766312254
 30
0.0
 11
331.7113852994401
 21
-53.99999766312254
 31
0.0
  0
LINE
  5
7F7E
330
1E
100
AcDbEntity
  8
10
100
AcDbLine
 10
311.7113951365531
 20
45.76384838038393
 30
0.0
 11
311.7113951365531
 21
-45.76383626872032
 31
0.0
  0
LINE
  5
7F7F
330
1E
100
AcDbEntity
  8
10
100
AcDbLine
 10
312.2113888347933
 20
-45.49999578806366
 30
0.0
 11
312.2113888347933
 21
45.50000789972734
 31
0.0
  0
LINE
  5
7F80
330
1E
100
AcDbEntity
  8
18
100
AcDbLine
 10
334.2113852994401
 20
49.00000000000005
 30
0.0
 11
334.2113852994401
 21
-49.0
 31
0.0
  0
LINE
  5
7F81
330
1E
100
AcDbEntity
  8
10
100
AcDbLine
 10
331.7113852994401
 20
-53.99999766312254
 30
0.0
 11
358.2113904327611
 21
-53.99999766312254
 31
0.0
  0
LINE
  5
7F82
330
1E
100
AcDbEntity
  8
18
100
AcDbLine
 10
335.2113852994404
 20
-50.0
 30
0.0
 11
346.7113852994401
 21
-50.0
 31
0.0
  0
LINE
  5
7F83
330
1E
100
AcDbEntity
  8
12
100
AcDbLine
 10
336.5113852994403
 20
-39.58559892324155
 30
0.0
 11
341.2113852994401
 21
-39.58559892324155
 31
0.0
  0
LINE
  5
7F84
330
1E
100
AcDbEntity
  8
12
100
AcDbLine
 10
336.5113852994403
 20
-33.10500000000001
 30
0.0
 11
341.2113852994401
 21
-33.10500000000001
 31
0.0
  0
LINE
  5
7F85
330
1E
100
AcDbEntity
  8
18
100
AcDbLine
 10
335.2113852994404
 20
-52.5
 30
0.0
 11
346.7113852994401
 21
-52.5
 31
0.0
  0
LINE
  5
7F86
330
1E
100
AcDbEntity
  8
12
100
AcDbLine
 10
323.2113852994401
 20
-37.5
 30
0.0
 11
351.7113852994401
 21
-37.5
 31
0.0
  0
LINE
  5
7F87
330
1E
100
AcDbEntity
  8
12
100
AcDbLine
 10
336.5113852994403
 20
-35.41440107675842
 30
0.0
 11
341.2113852994401
 21
-35.41440107675842
 31
0.0
  0
LINE
  5
7F88
330
1E
100
AcDbEntity
  8
12
100
AcDbLine
 10
336.5113852994403
 20
-41.89499999999998
 30
0.0
 11
341.2113852994401
 21
-41.89499999999998
 31
0.0
  0
ARC
  5
7F89
330
1E
100
AcDbEntity
  8
18
100
AcDbCircle
 10
335.2113852994404
 20
-49.0
 30
0.0
 40
3.5
100
AcDbArc
 50
180.0
 51
270.0
  0
ARC
  5
7F8A
330
1E
100
AcDbEntity
  8
18
100
AcDbCircle
 10
335.2113852994404
 20
-49.0
 30
0.0
 40
1.0
100
AcDbArc
 50
180.0
 51
270.0
  0
LINE
  5
7F8B
330
1E
100
AcDbEntity
  8
10
100
AcDbLine
 10
325.7113882505742
 20
-49.49999382064111
 30
0.0
 11
324.5042914059096
 21
-49.49999382064111
 31
0.0
  0
ARC
  5
7F8C
330
1E
100
AcDbEntity
  8
10
100
AcDbCircle
 10
323.7113892342853
 20
-49.49999382064111
 30
0.0
 40
1.999999962512433
100
AcDbArc
 50
0.0
 51
90.0
  0
LINE
  5
7F8D
330
1E
100
AcDbEntity
  8
10
100
AcDbLine
 10
323.7113892342853
 20
-47.49999480435239
 30
0.0
 11
314.2113878510821
 21
-47.49999480435239
 31
0.0
  0
ARC
  5
7F8E
330
1E
100
AcDbEntity
  8
10
100
AcDbCircle
 10
314.2113878510821
 20
-45.49999578806366
 30
0.0
 40
1.999999962512433
100
AcDbArc
 50
180.0
 51
270.0
  0
LINE
  5
7F8F
330
1E
100
AcDbEntity
  8
10
100
AcDbLine
 10
323.9793476805783
 20
-50.00006018886328
 30
0.0
 11
323.9793476805783
 21
-49.49999382064111
 31
0.0
  0
LINE
  5
7F90
330
1E
100
AcDbEntity
  8
12
100
AcDbLine
 10
335.2113852994404
 20
-32.5
 30
0.0
 11
335.2113852994404
 21
-42.5
 31
0.0
  0
LINE
  5
7F91
330
1E
100
AcDbEntity
  8
12
100
AcDbLine
 10
336.5113852994403
 20
-32.89999999999997
 30
0.0
 11
336.5113852994403
 21
-42.09999999999992
 31
0.0
  0
LINE
  5
7F92
330
1E
100
AcDbEntity
  8
12
100
AcDbLine
 10
335.2113852994404
 20
-42.09999999999992
 30
0.0
 11
336.5113852994403
 21
-42.09999999999992
 31
0.0
  0
LINE
  5
7F93
330
1E
100
AcDbEntity
  8
12
100
AcDbLine
 10
334.2113852994401
 20
-42.5
 30
0.0
 11
335.2113852994404
 21
-42.5
 31
0.0
  0
LINE
  5
7F94
330
1E
100
AcDbEntity
  8
12
100
AcDbLine
 10
335.2113852994404
 20
-32.89999999999997
 30
0.0
 11
336.5113852994403
 21
-32.89999999999997
 31
0.0
  0
LINE
  5
7F95
330
1E
100
AcDbEntity
  8
12
100
AcDbLine
 10
334.2113852994401
 20
-32.5
 30
0.0
 11
335.2113852994404
 21
-32.5
 31
0.0
  0
LINE
  5
7F96
330
1E
100
AcDbEntity
  8
18
100
AcDbLine
 10
346.7113852994401
 20
-52.5
 30
0.0
 11
346.7113852994401
 21
-50.0
 31
0.0
  0
ARC
  5
7F97
330
1E
100
AcDbEntity
  8
10
100
AcDbCircle
 10
358.2113904327611
 20
-54.49999136136288
 30
0.0
 40
0.4999999906281084
100
AcDbArc
 50
0.0
 51
90.0
  0
LINE
  5
7F98
330
1E
100
AcDbEntity
  8
10
100
AcDbLine
 10
358.7113841310013
 20
-54.49999136136288
 30
0.0
 11
358.7113841310013
 21
-55.49999086950726
 31
0.0
  0
LINE
  5
7F99
330
1E
100
AcDbEntity
  8
12
100
AcDbLine
 10
341.2113852994401
 20
-33.10500000000001
 30
0.0
 11
341.2113852994401
 21
-41.89499999999998
 31
0.0
  0
LINE
  5
7F9A
330
1E
100
AcDbEntity
  8
12
100
AcDbLine
 10
341.2113852994401
 20
-40.0
 30
0.0
 11
346.7113852994401
 21
-40.0
 31
0.0
  0
LINE
  5
7F9B
330
1E
100
AcDbEntity
  8
12
100
AcDbLine
 10
341.2113852994401
 20
-35.0
 30
0.0
 11
346.7113852994401
 21
-35.0
 31
0.0
  0
LINE
  5
7F9C
330
1E
100
AcDbEntity
  8
12
100
AcDbLine
 10
346.7113852994401
 20
-35.0
 30
0.0
 11
346.7113852994401
 21
-40.0
 31
0.0
  0
ARC
  5
7F9D
330
1E
100
AcDbEntity
  8
10
100
AcDbCircle
 10
314.2113878510821
 20
45.50000789972734
 30
0.0
 40
1.999999962512433
100
AcDbArc
 50
90.0
 51
180.0
  0
ARC
  5
7F9E
330
1E
100
AcDbEntity
  8
10
100
AcDbCircle
 10
323.7113892342853
 20
49.50000593230471
 30
0.0
 40
1.999999962512433
100
AcDbArc
 50
270.0
 51
0.0
  0
LINE
  5
7F9F
330
1E
100
AcDbEntity
  8
12
100
AcDbLine
 10
336.5113852994403
 20
39.5855989232416
 30
0.0
 11
341.2113852994401
 21
39.5855989232416
 31
0.0
  0
LINE
  5
7FA0
330
1E
100
AcDbEntity
  8
12
100
AcDbLine
 10
336.5113852994403
 20
35.41440107675851
 30
0.0
 11
341.2113852994401
 21
35.41440107675851
 31
0.0
  0
LINE
  5
7FA1
330
1E
100
AcDbEntity
  8
12
100
AcDbLine
 10
336.5113852994403
 20
33.10500000000001
 30
0.0
 11
341.2113852994401
 21
33.10500000000001
 31
0.0
  0
LINE
  5
7FA2
330
1E
100
AcDbEntity
  8
12
100
AcDbLine
 10
323.2113852994401
 20
37.5
 30
0.0
 11
351.7113852994401
 21
37.5
 31
0.0
  0
LINE
  5
7FA3
330
1E
100
AcDbEntity
  8
12
100
AcDbLine
 10
336.5113852994403
 20
41.89499999999992
 30
0.0
 11
341.2113852994401
 21
41.89499999999992
 31
0.0
  0
LINE
  5
7FA4
330
1E
100
AcDbEntity
  8
12
100
AcDbLine
 10
336.5113852994403
 20
42.09999999999985
 30
0.0
 11
336.5113852994403
 21
32.90000000000003
 31
0.0
  0
LINE
  5
7FA5
330
1E
100
AcDbEntity
  8
12
100
AcDbLine
 10
335.2113852994404
 20
42.5
 30
0.0
 11
335.2113852994404
 21
32.5
 31
0.0
  0
LINE
  5
7FA6
330
1E
100
AcDbEntity
  8
12
100
AcDbLine
 10
334.2113852994401
 20
32.5
 30
0.0
 11
335.2113852994404
 21
32.5
 31
0.0
  0
LINE
  5
7FA7
330
1E
100
AcDbEntity
  8
12
100
AcDbLine
 10
335.2113852994404
 20
32.90000000000003
 30
0.0
 11
336.5113852994403
 21
32.90000000000003
 31
0.0
  0
LINE
  5
7FA8
330
1E
100
AcDbEntity
  8
12
100
AcDbLine
 10
334.2113852994401
 20
42.5
 30
0.0
 11
335.2113852994404
 21
42.5
 31
0.0
  0
LINE
  5
7FA9
330
1E
100
AcDbEntity
  8
12
100
AcDbLine
 10
335.2113852994404
 20
42.10000000000007
 30
0.0
 11
336.5113852994403
 21
42.10000000000007
 31
0.0
  0
LINE
  5
7FAA
330
1E
100
AcDbEntity
  8
12
100
AcDbLine
 10
346.7113852994401
 20
40.0
 30
0.0
 11
346.7113852994401
 21
35.0
 31
0.0
  0
LINE
  5
7FAB
330
1E
100
AcDbEntity
  8
12
100
AcDbLine
 10
341.2113852994401
 20
41.89499999999992
 30
0.0
 11
341.2113852994401
 21
33.10500000000001
 31
0.0
  0
LINE
  5
7FAC
330
1E
100
AcDbEntity
  8
12
100
AcDbLine
 10
341.2113852994401
 20
35.0
 30
0.0
 11
346.7113852994401
 21
35.0
 31
0.0
  0
LINE
  5
7FAD
330
1E
100
AcDbEntity
  8
12
100
AcDbLine
 10
341.2113852994401
 20
40.0
 30
0.0
 11
346.7113852994401
 21
40.0
 31
0.0
  0
LINE
  5
7FAE
330
1E
100
AcDbEntity
  8
10
100
AcDbLine
 10
358.2113904327611
 20
53.99999766312254
 30
0.0
 11
331.7113852994401
 21
53.99999766312254
 31
0.0
  0
LINE
  5
7FAF
330
1E
100
AcDbEntity
  8
18
100
AcDbLine
 10
335.2113852994404
 20
52.5
 30
0.0
 11
346.7113852994401
 21
52.5
 31
0.0
  0
LINE
  5
7FB0
330
1E
100
AcDbEntity
  8
18
100
AcDbLine
 10
335.2113852994404
 20
50.0
 30
0.0
 11
346.7113852994401
 21
50.0
 31
0.0
  0
LINE
  5
7FB1
330
1E
100
AcDbEntity
  8
10
100
AcDbLine
 10
314.2113878510821
 20
47.50000691601599
 30
0.0
 11
323.7113892342853
 21
47.50000691601599
 31
0.0
  0
LINE
  5
7FB2
330
1E
100
AcDbEntity
  8
10
100
AcDbLine
 10
323.9793476805783
 20
49.50000593230471
 30
0.0
 11
323.9793476805783
 21
50.00007230052688
 31
0.0
  0
ARC
  5
7FB3
330
1E
100
AcDbEntity
  8
18
100
AcDbCircle
 10
335.2113852994404
 20
49.00000000000005
 30
0.0
 40
3.5
100
AcDbArc
 50
90.0
 51
180.0
  0
ARC
  5
7FB4
330
1E
100
AcDbEntity
  8
18
100
AcDbCircle
 10
335.2113852994404
 20
49.00000000000005
 30
0.0
 40
1.0
100
AcDbArc
 50
90.0
 51
180.0
  0
LINE
  5
7FB5
330
1E
100
AcDbEntity
  8
18
100
AcDbLine
 10
346.7113852994401
 20
50.0
 30
0.0
 11
346.7113852994401
 21
52.5
 31
0.0
  0
ARC
  5
7FB6
330
1E
100
AcDbEntity
  8
10
100
AcDbCircle
 10
358.2113904327611
 20
54.50001558469008
 30
0.0
 40
0.4999999906281084
100
AcDbArc
 50
270.0
 51
0.0
  0
LINE
  5
7FB7
330
1E
100
AcDbEntity
  8
10
100
AcDbLine
 10
358.7113841310013
 20
55.50000298117078
 30
0.0
 11
358.7113841310013
 21
54.50001558469008
 31
0.0
  0
LINE
  5
7FB8
330
1E
100
AcDbEntity
  8
10
100
AcDbLine
 10
289.2113880358095
 20
88.0000051633578
 30
0.0
 11
312.7113825330336
 21
88.0000051633578
 31
0.0
  0
LINE
  5
7FB9
330
1E
100
AcDbEntity
  8
10
100
AcDbLine
 10
288.2113764160013
 20
92.49999689417563
 30
0.0
 11
277.2113939380772
 21
92.49999689417563
 31
0.0
  0
LINE
  5
7FBA
330
1E
100
AcDbEntity
  8
10
100
AcDbLine
 10
288.2113764160013
 20
86.4999877336459
 30
0.0
 11
283.7113846851838
 21
86.4999877336459
 31
0.0
  0
LINE
  5
7FBB
330
1E
100
AcDbEntity
  8
10
100
AcDbLine
 10
277.2113939380772
 20
89.99999206798294
 30
0.0
 11
288.2113764160013
 21
89.99999206798294
 31
0.0
  0
LINE
  5
7FBC
330
1E
100
AcDbEntity
  8
10
100
AcDbLine
 10
283.7113846851838
 20
86.4999877336459
 30
0.0
 11
277.2113939380772
 21
86.4999877336459
 31
0.0
  0
LINE
  5
7FBD
330
1E
100
AcDbEntity
  8
10
100
AcDbLine
 10
276.7114002398368
 20
91.99999108427164
 30
0.0
 11
276.7114002398368
 21
90.49999787788692
 31
0.0
  0
LINE
  5
7FBE
330
1E
100
AcDbEntity
  8
10
100
AcDbLine
 10
276.7114002398368
 20
89.49998625807893
 30
0.0
 11
276.7114002398368
 21
86.99999354354986
 31
0.0
  0
LINE
  5
7FBF
330
1E
100
AcDbEntity
  8
10
100
AcDbLine
 10
276.7114002398368
 20
90.04063881114689
 30
0.0
 11
276.7114002398368
 21
89.91540420914589
 31
0.0
  0
LINE
  5
7FC0
330
1E
100
AcDbEntity
  8
10
100
AcDbLine
 10
276.7114002398368
 20
86.45935310214548
 30
0.0
 11
276.7114002398368
 21
86.34512800239008
 31
0.0
  0
LINE
  5
7FC1
330
1E
100
AcDbEntity
  8
10
100
AcDbLine
 10
276.7114002398368
 20
86.7182641357021
 30
0.0
 11
276.7114002398368
 21
86.5845755924829
 31
0.0
  0
LINE
  5
7FC2
330
1E
100
AcDbEntity
  8
10
100
AcDbLine
 10
276.7114002398368
 20
90.15485179923871
 30
0.0
 11
276.7114002398368
 21
90.04063881114689
 31
0.0
  0
LINE
  5
7FC3
330
1E
100
AcDbEntity
  8
10
100
AcDbLine
 10
276.7114002398368
 20
86.99999354354986
 30
0.0
 11
276.7114002398368
 21
86.85768149582139
 31
0.0
  0
LINE
  5
7FC4
330
1E
100
AcDbEntity
  8
10
100
AcDbLine
 10
276.7114002398368
 20
89.91540420914589
 30
0.0
 11
276.7114002398368
 21
89.78172777759027
 31
0.0
  0
LINE
  5
7FC5
330
1E
100
AcDbEntity
  8
10
100
AcDbLine
 10
276.7114002398368
 20
86.5845755924829
 30
0.0
 11
276.7114002398368
 21
86.45935310214548
 31
0.0
  0
LINE
  5
7FC6
330
1E
100
AcDbEntity
  8
10
100
AcDbLine
 10
276.7114002398368
 20
86.34512800239008
 30
0.0
 11
276.7114002398368
 21
86.24423784429836
 31
0.0
  0
LINE
  5
7FC7
330
1E
100
AcDbEntity
  8
10
100
AcDbLine
 10
276.7114002398368
 20
90.34125030260383
 30
0.0
 11
276.7114002398368
 21
90.25574195733041
 31
0.0
  0
LINE
  5
7FC8
330
1E
100
AcDbEntity
  8
10
100
AcDbLine
 10
276.7114002398368
 20
90.48981196876864
 30
0.0
 11
276.7114002398368
 21
90.45948436302294
 31
0.0
  0
LINE
  5
7FC9
330
1E
100
AcDbEntity
  8
10
100
AcDbLine
 10
276.7114002398368
 20
90.45948436302294
 30
0.0
 11
276.7114002398368
 21
90.40962064383164
 31
0.0
  0
LINE
  5
7FCA
330
1E
100
AcDbEntity
  8
10
100
AcDbLine
 10
276.7114002398368
 20
89.64231041747103
 30
0.0
 11
276.7114002398368
 21
89.49998625807893
 31
0.0
  0
LINE
  5
7FCB
330
1E
100
AcDbEntity
  8
10
100
AcDbLine
 10
276.7114002398368
 20
86.15874161068859
 30
0.0
 11
276.7114002398368
 21
86.09035915779712
 31
0.0
  0
LINE
  5
7FCC
330
1E
100
AcDbEntity
  8
10
100
AcDbLine
 10
276.7114002398368
 20
86.85768149582139
 30
0.0
 11
276.7114002398368
 21
86.7182641357021
 31
0.0
  0
LINE
  5
7FCD
330
1E
100
AcDbEntity
  8
10
100
AcDbLine
 10
276.7114002398368
 20
90.49999787788692
 30
0.0
 11
276.7114002398368
 21
90.48981196876864
 31
0.0
  0
LINE
  5
7FCE
330
1E
100
AcDbEntity
  8
10
100
AcDbLine
 10
276.7114002398368
 20
90.25574195733041
 30
0.0
 11
276.7114002398368
 21
90.15485179923871
 31
0.0
  0
LINE
  5
7FCF
330
1E
100
AcDbEntity
  8
10
100
AcDbLine
 10
276.7114002398368
 20
86.24423784429836
 30
0.0
 11
276.7114002398368
 21
86.15874161068859
 31
0.0
  0
LINE
  5
7FD0
330
1E
100
AcDbEntity
  8
10
100
AcDbLine
 10
276.7114002398368
 20
90.40962064383164
 30
0.0
 11
276.7114002398368
 21
90.34125030260383
 31
0.0
  0
LINE
  5
7FD1
330
1E
100
AcDbEntity
  8
10
100
AcDbLine
 10
276.7114002398368
 20
89.78172777759027
 30
0.0
 11
276.7114002398368
 21
89.64231041747103
 31
0.0
  0
ARC
  5
7FD2
330
1E
100
AcDbEntity
  8
10
100
AcDbCircle
 10
-277.2113939380772
 20
91.99999108427164
 30
0.0
 40
0.4999999906281084
210
0.0
220
0.0
230
-1.0
100
AcDbArc
 50
0.0
 51
90.0
  0
ARC
  5
7FD3
330
1E
100
AcDbEntity
  8
10
100
AcDbCircle
 10
-277.2113939380772
 20
90.49999787788692
 30
0.0
 40
0.4999999906281084
210
0.0
220
0.0
230
-1.0
100
AcDbArc
 50
270.0
 51
0.0
  0
LINE
  5
7FD4
330
1E
100
AcDbEntity
  8
10
100
AcDbLine
 10
279.1263448523108
 20
89.05187892685711
 30
0.0
 11
279.1262479590016
 21
89.05321120985719
 31
0.0
  0
LINE
  5
7FD5
330
1E
100
AcDbEntity
  8
10
100
AcDbLine
 10
288.7113943375691
 20
90.04063881114689
 30
0.0
 11
288.7113943375691
 21
90.15485179923871
 31
0.0
  0
LINE
  5
7FD6
330
1E
100
AcDbEntity
  8
10
100
AcDbLine
 10
288.7113943375691
 20
87.49998724179016
 30
0.0
 11
288.7113943375691
 21
89.49998625807893
 31
0.0
  0
LINE
  5
7FD7
330
1E
100
AcDbEntity
  8
10
100
AcDbLine
 10
288.7113943375691
 20
89.64231041747103
 30
0.0
 11
288.7113943375691
 21
89.78172777759027
 31
0.0
  0
LINE
  5
7FD8
330
1E
100
AcDbEntity
  8
10
100
AcDbLine
 10
288.7113943375691
 20
90.15485179923871
 30
0.0
 11
288.7113943375691
 21
90.25574195733041
 31
0.0
  0
LINE
  5
7FD9
330
1E
100
AcDbEntity
  8
10
100
AcDbLine
 10
288.7113943375691
 20
89.91540420914589
 30
0.0
 11
288.7113943375691
 21
90.04063881114689
 31
0.0
  0
LINE
  5
7FDA
330
1E
100
AcDbEntity
  8
10
100
AcDbLine
 10
288.7113943375691
 20
90.45948436302294
 30
0.0
 11
288.7113943375691
 21
90.48981196876864
 31
0.0
  0
LINE
  5
7FDB
330
1E
100
AcDbEntity
  8
10
100
AcDbLine
 10
288.7113943375691
 20
90.40962064383164
 30
0.0
 11
288.7113943375691
 21
90.45948436302294
 31
0.0
  0
LINE
  5
7FDC
330
1E
100
AcDbEntity
  8
10
100
AcDbLine
 10
288.7113943375691
 20
90.34125030260383
 30
0.0
 11
288.7113943375691
 21
90.40962064383164
 31
0.0
  0
LINE
  5
7FDD
330
1E
100
AcDbEntity
  8
10
100
AcDbLine
 10
288.7113943375691
 20
90.48981196876864
 30
0.0
 11
288.7113943375691
 21
90.49999787788692
 31
0.0
  0
LINE
  5
7FDE
330
1E
100
AcDbEntity
  8
10
100
AcDbLine
 10
288.7113943375691
 20
90.25574195733041
 30
0.0
 11
288.7113943375691
 21
90.34125030260383
 31
0.0
  0
LINE
  5
7FDF
330
1E
100
AcDbEntity
  8
10
100
AcDbLine
 10
288.7113943375691
 20
89.49998625807893
 30
0.0
 11
288.7113943375691
 21
89.64231041747103
 31
0.0
  0
LINE
  5
7FE0
330
1E
100
AcDbEntity
  8
10
100
AcDbLine
 10
288.7113943375691
 20
90.49999787788692
 30
0.0
 11
288.7113943375691
 21
91.99999108427164
 31
0.0
  0
LINE
  5
7FE1
330
1E
100
AcDbEntity
  8
10
100
AcDbLine
 10
288.7113943375691
 20
89.78172777759027
 30
0.0
 11
288.7113943375691
 21
89.91540420914589
 31
0.0
  0
ARC
  5
7FE2
330
1E
100
AcDbEntity
  8
10
100
AcDbCircle
 10
289.2113880358095
 20
87.50001146511754
 30
0.0
 40
0.4999999906281084
100
AcDbArc
 50
90.0
 51
180.0
  0
ARC
  5
7FE3
330
1E
100
AcDbEntity
  8
10
100
AcDbCircle
 10
-288.2113764160013
 20
91.99999108427164
 30
0.0
 40
0.4999999906281084
210
0.0
220
0.0
230
-1.0
100
AcDbArc
 50
90.0
 51
180.0
  0
ARC
  5
7FE4
330
1E
100
AcDbEntity
  8
10
100
AcDbCircle
 10
-288.2113764160013
 20
90.49999787788692
 30
0.0
 40
0.4999999906281084
210
0.0
220
0.0
230
-1.0
100
AcDbArc
 50
180.0
 51
270.0
  0
LINE
  5
7FE5
330
1E
100
AcDbEntity
  8
10
100
AcDbLine
 10
326.2113819488143
 20
90.00000417964656
 30
0.0
 11
358.2113904327611
 21
90.00000417964656
 31
0.0
  0
LINE
  5
7FE6
330
1E
100
AcDbEntity
  8
10
100
AcDbLine
 10
312.7113825330336
 20
90.00000417964656
 30
0.0
 11
326.2113819488143
 21
90.00000417964656
 31
0.0
  0
LINE
  5
7FE7
330
1E
100
AcDbEntity
  8
10
100
AcDbLine
 10
312.7318996912338
 20
95.64006680856449
 30
0.0
 11
312.7200787075248
 21
95.99382428005808
 31
0.0
  0
LINE
  5
7FE8
330
1E
100
AcDbEntity
  8
10
100
AcDbLine
 10
322.7113776144773
 20
99.00001186460942
 30
0.0
 11
322.7113776144773
 21
93.8055373408771
 31
0.0
  0
LINE
  5
7FE9
330
1E
100
AcDbEntity
  8
10
100
AcDbLine
 10
312.7113825330336
 20
94.07349578717004
 30
0.0
 11
312.7113825330336
 21
95.89269188869378
 31
0.0
  0
LINE
  5
7FEA
330
1E
100
AcDbEntity
  8
10
100
AcDbLine
 10
322.7113776144773
 20
93.8055373408771
 30
0.0
 11
313.7113941528417
 21
93.8055373408771
 31
0.0
  0
LINE
  5
7FEB
330
1E
100
AcDbEntity
  8
10
100
AcDbLine
 10
322.7113776144773
 20
91.20746437421979
 30
0.0
 11
313.7113941528417
 21
91.20746437421979
 31
0.0
  0
LINE
  5
7FEC
330
1E
100
AcDbEntity
  8
10
100
AcDbLine
 10
322.7113776144773
 20
90.00746496444657
 30
0.0
 11
313.7113941528417
 21
90.00746496444657
 31
0.0
  0
LINE
  5
7FED
330
1E
100
AcDbEntity
  8
10
100
AcDbLine
 10
312.8017597670889
 20
91.36411663169385
 30
0.0
 11
312.8701422199803
 21
91.33056732342076
 31
0.0
  0
LINE
  5
7FEE
330
1E
100
AcDbEntity
  8
10
100
AcDbLine
 10
313.1707537114373
 20
91.25000053691108
 30
0.0
 11
313.2959640901114
 21
91.23168770149277
 31
0.0
  0
LINE
  5
7FEF
330
1E
100
AcDbEntity
  8
10
100
AcDbLine
 10
312.9556263419266
 20
91.29994903774786
 30
0.0
 11
313.0565165000184
 21
91.2729158045114
 31
0.0
  0
LINE
  5
7FF0
330
1E
100
AcDbEntity
  8
10
100
AcDbLine
 10
312.7113825330336
 20
91.4754228205129
 30
0.0
 11
312.7215563304883
 21
91.4372953033853
 31
0.0
  0
LINE
  5
7FF1
330
1E
100
AcDbEntity
  8
10
100
AcDbLine
 10
312.8701422199803
 20
91.33056732342076
 30
0.0
 11
312.9556263419266
 21
91.29994903774786
 31
0.0
  0
LINE
  5
7FF2
330
1E
100
AcDbEntity
  8
10
100
AcDbLine
 10
312.7113825330336
 20
89.98748071944641
 30
0.0
 11
312.7113825330336
 21
90.00000417964656
 31
0.0
  0
LINE
  5
7FF3
330
1E
100
AcDbEntity
  8
10
100
AcDbLine
 10
312.7168085583428
 20
91.81973319437011
 30
0.0
 11
312.7293562418703
 21
92.02536501959
 31
0.0
  0
LINE
  5
7FF4
330
1E
100
AcDbEntity
  8
10
100
AcDbLine
 10
313.429071273476
 20
93.81643783814979
 30
0.0
 11
313.5687672018588
 21
93.8082745768588
 31
0.0
  0
LINE
  5
7FF5
330
1E
100
AcDbEntity
  8
10
100
AcDbLine
 10
312.7113825330336
 20
91.4754228205129
 30
0.0
 11
312.7113825330336
 21
91.62962852193231
 31
0.0
  0
LINE
  5
7FF6
330
1E
100
AcDbEntity
  8
10
100
AcDbLine
 10
312.7360418801976
 20
93.7275140037309
 30
0.0
 11
312.7211445339248
 21
94.03619186316973
 31
0.0
  0
LINE
  5
7FF7
330
1E
100
AcDbEntity
  8
10
100
AcDbLine
 10
312.7113825330336
 20
90.01245496986479
 30
0.0
 11
312.7113825330336
 21
91.4754228205129
 31
0.0
  0
LINE
  5
7FF8
330
1E
100
AcDbEntity
  8
10
100
AcDbLine
 10
312.7430424217795
 20
94.94136915670424
 30
0.0
 11
312.7404989724158
 21
95.29175958570705
 31
0.0
  0
LINE
  5
7FF9
330
1E
100
AcDbEntity
  8
10
100
AcDbLine
 10
313.2959640901114
 20
90.00792520766481
 30
0.0
 11
313.1707537114373
 21
90.00826433424656
 31
0.0
  0
LINE
  5
7FFA
330
1E
100
AcDbEntity
  8
10
100
AcDbLine
 10
312.7211445339248
 20
94.03619186316973
 30
0.0
 11
312.7511087897612
 21
93.99871837587852
 31
0.0
  0
LINE
  5
7FFB
330
1E
100
AcDbEntity
  8
10
100
AcDbLine
 10
312.7113825330336
 20
90.00000417964656
 30
0.0
 11
312.7113825330336
 21
90.01245496986479
 31
0.0
  0
LINE
  5
7FFC
330
1E
100
AcDbEntity
  8
10
100
AcDbLine
 10
313.5690821051133
 20
90.00751341110117
 30
0.0
 11
313.4296526333303
 21
90.00768297439206
 31
0.0
  0
LINE
  5
7FFD
330
1E
100
AcDbEntity
  8
10
100
AcDbLine
 10
312.7113825330336
 20
89.81174048008142
 30
0.0
 11
312.7113825330336
 21
89.89092653693658
 31
0.0
  0
LINE
  5
7FFE
330
1E
100
AcDbEntity
  8
10
100
AcDbLine
 10
313.0565165000184
 20
91.2729158045114
 30
0.0
 11
313.1707537114373
 21
91.25000053691108
 31
0.0
  0
LINE
  5
7FFF
330
1E
100
AcDbEntity
  8
10
100
AcDbLine
 10
312.7113825330336
 20
89.7169546004625
 30
0.0
 11
312.7113825330336
 21
89.81174048008142
 31
0.0
  0
LINE
  5
8000
330
1E
100
AcDbEntity
  8
10
100
AcDbLine
 10
312.7215563304883
 20
91.4372953033853
 30
0.0
 11
312.7518839362343
 21
91.3999187094032
 31
0.0
  0
LINE
  5
8001
330
1E
100
AcDbEntity
  8
10
100
AcDbLine
 10
312.9556263419266
 20
90.009184820683
 30
0.0
 11
312.8701422199803
 21
90.00976618053758
 31
0.0
  0
LINE
  5
8002
330
1E
100
AcDbEntity
  8
10
100
AcDbLine
 10
312.7355331903248
 20
94.48306380470055
 30
0.0
 11
312.7406443123794
 21
94.71178046081147
 31
0.0
  0
LINE
  5
8003
330
1E
100
AcDbEntity
  8
10
100
AcDbLine
 10
312.7211445339248
 20
94.03619186316973
 30
0.0
 11
312.7286053187248
 21
94.25856200753507
 31
0.0
  0
LINE
  5
8004
330
1E
100
AcDbEntity
  8
10
100
AcDbLine
 10
312.9544393988902
 20
93.89840957764135
 30
0.0
 11
313.0553537803091
 21
93.87125522776836
 31
0.0
  0
LINE
  5
8005
330
1E
100
AcDbEntity
  8
10
100
AcDbLine
 10
313.5690821051133
 20
91.21020161020167
 30
0.0
 11
313.7113941528417
 21
91.20746437421979
 31
0.0
  0
LINE
  5
8006
330
1E
100
AcDbEntity
  8
10
100
AcDbLine
 10
312.7441324715068
 20
92.25037550662818
 30
0.0
 11
312.7567286016887
 21
92.48953241679371
 31
0.0
  0
LINE
  5
8007
330
1E
100
AcDbEntity
  8
10
100
AcDbLine
 10
312.8007423873433
 20
93.9627951815329
 30
0.0
 11
312.8689795002715
 21
93.92912475662342
 31
0.0
  0
LINE
  5
8008
330
1E
100
AcDbEntity
  8
10
100
AcDbLine
 10
312.7406443123794
 20
94.71178046081147
 30
0.0
 11
312.7430424217795
 21
94.94136915670424
 31
0.0
  0
LINE
  5
8009
330
1E
100
AcDbEntity
  8
10
100
AcDbLine
 10
312.8701422199803
 20
90.00976618053758
 30
0.0
 11
312.8017597670889
 21
90.01037176371935
 31
0.0
  0
LINE
  5
800A
330
1E
100
AcDbEntity
  8
10
100
AcDbLine
 10
313.1697121083646
 20
93.84826729018639
 30
0.0
 11
313.295140496984
 21
93.82985756145901
 31
0.0
  0
LINE
  5
800B
330
1E
100
AcDbEntity
  8
10
100
AcDbLine
 10
312.7113825330336
 20
89.95049169870069
 30
0.0
 11
312.7113825330336
 21
89.98748071944641
 31
0.0
  0
LINE
  5
800C
330
1E
100
AcDbEntity
  8
10
100
AcDbLine
 10
312.7518839362343
 20
91.3999187094032
 30
0.0
 11
312.8017597670889
 21
91.36411663169385
 31
0.0
  0
LINE
  5
800D
330
1E
100
AcDbEntity
  8
10
100
AcDbLine
 10
312.7511087897612
 20
93.99871837587852
 30
0.0
 11
312.8007423873433
 21
93.9627951815329
 31
0.0
  0
LINE
  5
800E
330
1E
100
AcDbEntity
  8
10
100
AcDbLine
 10
313.0553537803091
 20
93.87125522776836
 30
0.0
 11
313.1697121083646
 21
93.84826729018639
 31
0.0
  0
LINE
  5
800F
330
1E
100
AcDbEntity
  8
10
100
AcDbLine
 10
312.7113825330336
 20
89.5000104814062
 30
0.0
 11
312.7113825330336
 21
89.61126822357073
 31
0.0
  0
LINE
  5
8010
330
1E
100
AcDbEntity
  8
10
100
AcDbLine
 10
312.7293562418703
 20
92.02536501959
 30
0.0
 11
312.7441324715068
 21
92.25037550662818
 31
0.0
  0
LINE
  5
8011
330
1E
100
AcDbEntity
  8
10
100
AcDbLine
 10
312.7113825330336
 20
89.89092653693658
 30
0.0
 11
312.7113825330336
 21
89.95049169870069
 31
0.0
  0
LINE
  5
8012
330
1E
100
AcDbEntity
  8
10
100
AcDbLine
 10
312.7518839362343
 20
90.01105001688292
 30
0.0
 11
312.7215563304883
 21
90.01172827004666
 31
0.0
  0
LINE
  5
8013
330
1E
100
AcDbEntity
  8
10
100
AcDbLine
 10
312.8017597670889
 20
90.01037176371935
 30
0.0
 11
312.7518839362343
 21
90.01105001688292
 31
0.0
  0
LINE
  5
8014
330
1E
100
AcDbEntity
  8
10
100
AcDbLine
 10
312.7567286016887
 20
92.48953241679371
 30
0.0
 11
312.7641893864886
 21
92.77444719217784
 31
0.0
  0
LINE
  5
8015
330
1E
100
AcDbEntity
  8
10
100
AcDbLine
 10
312.7522230628158
 20
93.39526684685543
 30
0.0
 11
312.7360418801976
 21
93.7275140037309
 31
0.0
  0
LINE
  5
8016
330
1E
100
AcDbEntity
  8
10
100
AcDbLine
 10
312.7113825330336
 20
89.5000104814062
 30
0.0
 11
312.7113825330336
 21
87.50001146511754
 31
0.0
  0
LINE
  5
8017
330
1E
100
AcDbEntity
  8
10
100
AcDbLine
 10
312.7215563304883
 20
90.01172827004666
 30
0.0
 11
312.7113825330336
 21
90.01245496986479
 31
0.0
  0
LINE
  5
8018
330
1E
100
AcDbEntity
  8
10
100
AcDbLine
 10
312.7628328801615
 20
93.07392018725288
 30
0.0
 11
312.7522230628158
 21
93.39526684685543
 31
0.0
  0
LINE
  5
8019
330
1E
100
AcDbEntity
  8
10
100
AcDbLine
 10
313.4296526333303
 20
90.00768297439206
 30
0.0
 11
313.2959640901114
 21
90.00792520766481
 31
0.0
  0
LINE
  5
801A
330
1E
100
AcDbEntity
  8
10
100
AcDbLine
 10
312.7113825330336
 20
89.61126822357073
 30
0.0
 11
312.7113825330336
 21
89.7169546004625
 31
0.0
  0
LINE
  5
801B
330
1E
100
AcDbEntity
  8
10
100
AcDbLine
 10
313.2959640901114
 20
91.23168770149277
 30
0.0
 11
313.4296526333303
 21
91.21831642483812
 31
0.0
  0
LINE
  5
801C
330
1E
100
AcDbEntity
  8
10
100
AcDbLine
 10
312.8689795002715
 20
93.92912475662342
 30
0.0
 11
312.9544393988902
 21
93.89840957764135
 31
0.0
  0
LINE
  5
801D
330
1E
100
AcDbEntity
  8
10
100
AcDbLine
 10
312.7113825330336
 20
91.93004622677108
 30
0.0
 11
312.7113825330336
 21
94.01223499249679
 31
0.0
  0
LINE
  5
801E
330
1E
100
AcDbEntity
  8
10
100
AcDbLine
 10
313.0565165000184
 20
90.00867613081025
 30
0.0
 11
312.9556263419266
 21
90.009184820683
 31
0.0
  0
LINE
  5
801F
330
1E
100
AcDbEntity
  8
10
100
AcDbLine
 10
312.7404989724158
 20
95.29175958570705
 30
0.0
 11
312.7318996912338
 21
95.64006680856449
 31
0.0
  0
LINE
  5
8020
330
1E
100
AcDbEntity
  8
10
100
AcDbLine
 10
313.295140496984
 20
93.82985756145901
 30
0.0
 11
313.429071273476
 21
93.81643783814979
 31
0.0
  0
LINE
  5
8021
330
1E
100
AcDbEntity
  8
10
100
AcDbLine
 10
312.7286053187248
 20
94.25856200753507
 30
0.0
 11
312.7355331903248
 21
94.48306380470055
 31
0.0
  0
LINE
  5
8022
330
1E
100
AcDbEntity
  8
10
100
AcDbLine
 10
313.1707537114373
 20
90.00826433424656
 30
0.0
 11
313.0565165000184
 21
90.00867613081025
 31
0.0
  0
LINE
  5
8023
330
1E
100
AcDbEntity
  8
10
100
AcDbLine
 10
312.7113825330336
 20
91.62962852193231
 30
0.0
 11
312.7168085583428
 21
91.81973319437011
 31
0.0
  0
LINE
  5
8024
330
1E
100
AcDbEntity
  8
10
100
AcDbLine
 10
313.5687672018588
 20
93.8082745768588
 30
0.0
 11
313.7113941528417
 21
93.8055373408771
 31
0.0
  0
LINE
  5
8025
330
1E
100
AcDbEntity
  8
10
100
AcDbLine
 10
313.7113941528417
 20
90.00746496444657
 30
0.0
 11
313.5690821051133
 21
90.00751341110117
 31
0.0
  0
LINE
  5
8026
330
1E
100
AcDbEntity
  8
10
100
AcDbLine
 10
312.7641893864886
 20
92.77444719217784
 30
0.0
 11
312.7628328801615
 21
93.07392018725288
 31
0.0
  0
LINE
  5
8027
330
1E
100
AcDbEntity
  8
10
100
AcDbLine
 10
313.4296526333303
 20
91.21831642483812
 30
0.0
 11
313.5690821051133
 21
91.21020161020167
 31
0.0
  0
LINE
  5
8028
330
1E
100
AcDbEntity
  8
10
100
AcDbLine
 10
322.7113776144773
 20
90.00000417964656
 30
0.0
 11
322.7113776144773
 21
90.00746496444657
 31
0.0
  0
LINE
  5
8029
330
1E
100
AcDbEntity
  8
10
100
AcDbLine
 10
322.7113776144773
 20
91.20746437421979
 30
0.0
 11
322.7113776144773
 21
93.8055373408771
 31
0.0
  0
LINE
  5
802A
330
1E
100
AcDbEntity
  8
10
100
AcDbLine
 10
322.7113776144773
 20
90.00746496444657
 30
0.0
 11
322.7113776144773
 21
91.20746437421979
 31
0.0
  0
LINE
  5
802B
330
1E
100
AcDbEntity
  8
10
100
AcDbLine
 10
313.7113941528417
 20
99.99999926109012
 30
0.0
 11
322.7113776144773
 21
99.99999926109012
 31
0.0
  0
LINE
  5
802C
330
1E
100
AcDbEntity
  8
10
100
AcDbLine
 10
312.7113825330336
 20
96.43614223606165
 30
0.0
 11
312.7113825330336
 21
99.00001186460942
 31
0.0
  0
LINE
  5
802D
330
1E
100
AcDbEntity
  8
10
100
AcDbLine
 10
312.7200787075248
 20
95.99382428005808
 30
0.0
 11
312.7119396695611
 21
96.34048431666087
 31
0.0
  0
LINE
  5
802E
330
1E
100
AcDbEntity
  8
10
100
AcDbLine
 10
312.7119396695611
 20
96.34048431666087
 30
0.0
 11
312.7113825330336
 21
96.43614223606165
 31
0.0
  0
ARC
  5
802F
330
1E
100
AcDbEntity
  8
10
100
AcDbCircle
 10
313.7113941528417
 20
99.00001186460942
 30
0.0
 40
0.9999999812562167
100
AcDbArc
 50
90.0
 51
180.0
  0
LINE
  5
8030
330
1E
100
AcDbEntity
  8
10
100
AcDbLine
 10
322.7113776144773
 20
99.90964625036212
 30
0.0
 11
322.7113776144773
 21
99.84126379747069
 31
0.0
  0
LINE
  5
8031
330
1E
100
AcDbEntity
  8
10
100
AcDbLine
 10
322.7113776144773
 20
99.28172916079347
 30
0.0
 11
322.7113776144773
 21
99.14232391233781
 31
0.0
  0
LINE
  5
8032
330
1E
100
AcDbEntity
  8
10
100
AcDbLine
 10
322.7113776144773
 20
99.98982546363549
 30
0.0
 11
322.7113776144773
 21
99.9594978578898
 31
0.0
  0
LINE
  5
8033
330
1E
100
AcDbEntity
  8
10
100
AcDbLine
 10
322.7113776144773
 20
99.75575545219738
 30
0.0
 11
322.7113776144773
 21
99.65486529410549
 31
0.0
  0
LINE
  5
8034
330
1E
100
AcDbEntity
  8
10
100
AcDbLine
 10
322.7113776144773
 20
99.41541770401268
 30
0.0
 11
322.7113776144773
 21
99.28172916079347
 31
0.0
  0
LINE
  5
8035
330
1E
100
AcDbEntity
  8
10
100
AcDbLine
 10
322.7113776144773
 20
99.54065230601372
 30
0.0
 11
322.7113776144773
 21
99.41541770401268
 31
0.0
  0
LINE
  5
8036
330
1E
100
AcDbEntity
  8
10
100
AcDbLine
 10
322.7113776144773
 20
99.84126379747069
 30
0.0
 11
322.7113776144773
 21
99.75575545219738
 31
0.0
  0
LINE
  5
8037
330
1E
100
AcDbEntity
  8
10
100
AcDbLine
 10
322.7113776144773
 20
99.14232391233781
 30
0.0
 11
322.7113776144773
 21
99.00001186460942
 31
0.0
  0
LINE
  5
8038
330
1E
100
AcDbEntity
  8
10
100
AcDbLine
 10
322.7113776144773
 20
99.99999926109012
 30
0.0
 11
322.7113776144773
 21
99.98982546363549
 31
0.0
  0
LINE
  5
8039
330
1E
100
AcDbEntity
  8
10
100
AcDbLine
 10
322.7113776144773
 20
99.9594978578898
 30
0.0
 11
322.7113776144773
 21
99.90964625036212
 31
0.0
  0
LINE
  5
803A
330
1E
100
AcDbEntity
  8
10
100
AcDbLine
 10
322.7113776144773
 20
99.65486529410549
 30
0.0
 11
322.7113776144773
 21
99.54065230601372
 31
0.0
  0
ARC
  5
803B
330
1E
100
AcDbEntity
  8
10
100
AcDbCircle
 10
326.2113819488143
 20
89.5000104814062
 30
0.0
 40
0.4999999906281084
100
AcDbArc
 50
90.0
 51
180.0
  0
ARC
  5
803C
330
1E
100
AcDbEntity
  8
10
100
AcDbCircle
 10
358.2113904327611
 20
89.5000104814062
 30
0.0
 40
0.4999999906281084
100
AcDbArc
 50
0.0
 51
90.0
  0
LINE
  5
803D
330
1E
100
AcDbEntity
  8
10
100
AcDbLine
 10
358.7113841310013
 20
89.5000104814062
 30
0.0
 11
358.7113841310013
 21
88.0000051633578
 31
0.0
  0
DIMENSION
  5
84A7
330
1E
100
AcDbEntity
  8
30
100
AcDbDimension
  2
*D34
 10
59.99999999999978
 20
-439.1618080185514
 30
0.0
 11
52.5
 21
-436.1618080185514
 31
0.0
 70
    32
  3
STANDARD
100
AcDbAlignedDimension
 13
45.00000000000023
 23
-335.0
 33
0.0
 14
59.99999999999978
 24
-335.0
 34
0.0
 50
180.0
100
AcDbRotatedDimension
  0
DIMENSION
  5
84A8
330
1E
100
AcDbEntity
  8
30
100
AcDbDimension
  2
*D35
 10
52.49999999999978
 20
-457.9118080185515
 30
0.0
 11
17.5
 21
-454.9118080185515
 31
0.0
 70
    32
  3
STANDARD
100
AcDbAlignedDimension
 13
-17.49999999999976
 23
-350.0000000165001
 33
0.0
 14
52.49999999999978
 24
-350.0000000165001
 34
0.0
 50
180.0
100
AcDbRotatedDimension
  0
LINE
  5
84AA
330
1E
100
AcDbEntity
  8
18
 48
2.0
100
AcDbLine
 10
-49.99999547980928
 20
-394.5000032643633
 30
0.0
 11
-49.99999547980928
 21
-369.0000097508505
 31
0.0
  0
LINE
  5
84AC
330
1E
100
AcDbEntity
  8
18
 48
2.0
100
AcDbLine
 10
87.50000350418963
 20
-219.9999982556959
 30
0.0
 11
87.50000350418963
 21
-399.5000066149891
 31
0.0
  0
INSERT
  5
84AD
330
1E
100
AcDbEntity
  8
30
100
AcDbBlockReference
  2
*U32
 10
-1233.627990430622
 20
-614.1618080090514
 30
0.0
 41
2.5
 42
2.5
 43
2.5
  0
INSERT
  5
84AE
330
1E
100
AcDbEntity
  8
30
100
AcDbBlockReference
  2
*U33
 10
-1233.627990430622
 20
-614.1618080090514
 30
0.0
 41
2.5
 42
2.5
 43
2.5
  0
TEXT
  5
84AF
330
1E
100
AcDbEntity
  8
30
100
AcDbText
 10
74.0893065963876
 20
-424.4116046251979
 30
0.0
 40
6.25
  1
Mounting plate
 41
0.7125304878048843
  7
UGMTXT
100
AcDbText
  0
LINE
  5
84B0
330
1E
100
AcDbEntity
  8
18
 48
2.0
100
AcDbLine
 10
-12.99999999999975
 20
-400.0
 30
0.0
 11
13.0
 21
-400.0
 31
0.0
  0
LINE
  5
84B1
330
1E
100
AcDbEntity
  8
18
 48
2.0
100
AcDbLine
 10
-48.0
 20
-400.0
 30
0.0
 11
-22.0
 21
-400.0
 31
0.0
  0
LINE
  5
84B2
330
1E
100
AcDbEntity
  8
18
 48
2.0
100
AcDbLine
 10
-52.50000030600197
 20
-394.5000032643633
 30
0.0
 11
-52.50000030600197
 21
-399.5000008050851
 31
0.0
  0
LINE
  5
84B3
330
1E
100
AcDbEntity
  8
18
 48
2.0
100
AcDbLine
 10
-52.5
 20
-398.0000000000001
 30
0.0
 11
-52.5
 21
-400.0
 31
0.0
  0
LINE
  5
84B4
330
1E
100
AcDbEntity
  8
18
 48
2.0
100
AcDbLine
 10
-52.5
 20
-400.0
 30
0.0
 11
-48.0
 21
-400.0
 31
0.0
  0
LINE
  5
84B5
330
1E
100
AcDbEntity
  8
18
 48
2.0
100
AcDbLine
 10
-52.50000030600197
 20
-394.5000032643633
 30
0.0
 11
-49.99999547980928
 21
-394.5000032643633
 31
0.0
  0
LINE
  5
84B6
330
1E
100
AcDbEntity
  8
18
 48
2.0
100
AcDbLine
 10
-21.00000000000022
 20
-401.2074660790678
 30
0.0
 11
-22.5
 21
-403.8055422904212
 31
0.0
  0
LINE
  5
84B7
330
1E
100
AcDbEntity
  8
18
 48
2.0
100
AcDbLine
 10
-22.5
 20
-400.0
 30
0.0
 11
-21.00000000000022
 21
-400.0074660790678
 31
0.0
  0
ARC
  5
84B8
330
1E
100
AcDbEntity
  8
18
 48
2.0
100
AcDbCircle
 10
21.49999999999999
 20
-409.0000000000001
 30
0.0
 40
1.0
210
0.0
220
0.0
230
-1.0
100
AcDbArc
 50
270.0
 51
0.0
  0
LINE
  5
84B9
330
1E
100
AcDbEntity
  8
18
 48
2.0
100
AcDbLine
 10
-22.5
 20
-403.8055422904212
 30
0.0
 11
-22.5
 21
-409.0000000000001
 31
0.0
  0
LINE
  5
84BA
330
1E
100
AcDbEntity
  8
18
 48
2.0
100
AcDbLine
 10
-12.5
 20
-403.8055422904212
 30
0.0
 11
-12.5
 21
-409.0000000000001
 31
0.0
  0
LINE
  5
84BB
330
1E
100
AcDbEntity
  8
18
 48
2.0
100
AcDbLine
 10
-21.49999999999999
 20
-410.0000000000001
 30
0.0
 11
-13.50000000000022
 21
-410.0000000000001
 31
0.0
  0
ARC
  5
84BC
330
1E
100
AcDbEntity
  8
18
 48
2.0
100
AcDbCircle
 10
13.50000000000022
 20
-409.0000000000001
 30
0.0
 40
1.0
210
0.0
220
0.0
230
-1.0
100
AcDbArc
 50
180.0
 51
270.0
  0
LINE
  5
84BD
330
1E
100
AcDbEntity
  8
18
 48
2.0
100
AcDbLine
 10
-21.00000000000022
 20
-400.0074660790678
 30
0.0
 11
-21.00000000000022
 21
-401.2074660790678
 31
0.0
  0
CIRCLE
  5
84BE
330
1E
100
AcDbEntity
  8
18
 48
2.0
100
AcDbCircle
 10
-17.49999935345408
 20
-405.0000030202424
 30
0.0
 40
2.175250057989686
  0
LINE
  5
84BF
330
1E
100
AcDbEntity
  8
18
 48
2.0
100
AcDbLine
 10
-12.5
 20
-400.0
 30
0.0
 11
-14.0
 21
-400.0074660790678
 31
0.0
  0
LINE
  5
84C0
330
1E
100
AcDbEntity
  8
18
 48
2.0
100
AcDbLine
 10
-14.0
 20
-400.0074660790678
 30
0.0
 11
-14.0
 21
-401.2074660790678
 31
0.0
  0
LINE
  5
84C1
330
1E
100
AcDbEntity
  8
18
 48
2.0
100
AcDbLine
 10
-14.0
 20
-401.2074660790678
 30
0.0
 11
-12.5
 21
-403.8055422904212
 31
0.0
  0
LINE
  5
84C2
330
1E
100
AcDbEntity
  8
18
 48
2.0
100
AcDbLine
 10
22.00000000000021
 20
-400.0
 30
0.0
 11
48.00000000000022
 21
-400.0
 31
0.0
  0
LINE
  5
84C3
330
1E
100
AcDbEntity
  8
18
 48
2.0
100
AcDbLine
 10
13.5
 20
-410.0000000000001
 30
0.0
 11
21.49999999999977
 21
-410.0000000000001
 31
0.0
  0
CIRCLE
  5
84C4
330
1E
100
AcDbEntity
  8
18
 48
2.0
100
AcDbCircle
 10
-17.5
 20
-405.0000000000001
 30
0.0
 40
2.25
210
0.0
220
0.0
230
-1.0
  0
LINE
  5
84C5
330
1E
100
AcDbEntity
  8
18
 48
2.0
100
AcDbLine
 10
12.5
 20
-403.8055422904212
 30
0.0
 11
12.5
 21
-409.0000000000001
 31
0.0
  0
ARC
  5
84C6
330
1E
100
AcDbEntity
  8
18
 48
2.0
100
AcDbCircle
 10
-13.5
 20
-409.0000000000001
 30
0.0
 40
1.0
210
0.0
220
0.0
230
-1.0
100
AcDbArc
 50
270.0
 51
0.0
  0
LINE
  5
84C7
330
1E
100
AcDbEntity
  8
18
 48
2.0
100
AcDbLine
 10
12.5
 20
-400.0
 30
0.0
 11
13.99999999999977
 21
-400.0074660790678
 31
0.0
  0
LINE
  5
84C8
330
1E
100
AcDbEntity
  8
18
 48
2.0
100
AcDbLine
 10
13.99999999999977
 20
-400.0074660790678
 30
0.0
 11
13.99999999999977
 21
-401.2074660790678
 31
0.0
  0
LINE
  5
84C9
330
1E
100
AcDbEntity
  8
18
 48
2.0
100
AcDbLine
 10
13.99999999999977
 20
-401.2074660790678
 30
0.0
 11
12.5
 21
-403.8055422904212
 31
0.0
  0
LINE
  5
84CA
330
1E
100
AcDbEntity
  8
18
 48
2.0
100
AcDbLine
 10
22.5
 20
-403.8055422904212
 30
0.0
 11
22.5
 21
-409.0000000000001
 31
0.0
  0
ARC
  5
84CB
330
1E
100
AcDbEntity
  8
18
 48
2.0
100
AcDbCircle
 10
-21.49999999999977
 20
-409.0000000000001
 30
0.0
 40
1.0
210
0.0
220
0.0
230
-1.0
100
AcDbArc
 50
180.0
 51
270.0
  0
LINE
  5
84CC
330
1E
100
AcDbEntity
  8
18
 48
2.0
100
AcDbLine
 10
21.0
 20
-401.2074660790678
 30
0.0
 11
22.5
 21
-403.8055422904212
 31
0.0
  0
LINE
  5
84CD
330
1E
100
AcDbEntity
  8
18
 48
2.0
100
AcDbLine
 10
22.5
 20
-400.0
 30
0.0
 11
21.0
 21
-400.0074660790678
 31
0.0
  0
LINE
  5
84CE
330
1E
100
AcDbEntity
  8
18
 48
2.0
100
AcDbLine
 10
21.0
 20
-400.0074660790678
 30
0.0
 11
21.0
 21
-401.2074660790678
 31
0.0
  0
LINE
  5
84CF
330
1E
100
AcDbEntity
  8
18
 48
2.0
100
AcDbLine
 10
57.0
 20
-400.0
 30
0.0
 11
83.00000000000023
 21
-400.0
 31
0.0
  0
LINE
  5
84D0
330
1E
100
AcDbEntity
  8
18
 48
2.0
100
AcDbLine
 10
47.49999999999977
 20
-403.8055422904212
 30
0.0
 11
47.49999999999977
 21
-409.0000000000001
 31
0.0
  0
LINE
  5
84D1
330
1E
100
AcDbEntity
  8
18
 48
2.0
100
AcDbLine
 10
57.49999999999977
 20
-403.8055422904212
 30
0.0
 11
57.49999999999977
 21
-409.0000000000001
 31
0.0
  0
LINE
  5
84D2
330
1E
100
AcDbEntity
  8
18
 48
2.0
100
AcDbLine
 10
48.5
 20
-410.0000000000001
 30
0.0
 11
56.49999999999955
 21
-410.0000000000001
 31
0.0
  0
ARC
  5
84D3
330
1E
100
AcDbEntity
  8
18
 48
2.0
100
AcDbCircle
 10
-48.5
 20
-409.0000000000001
 30
0.0
 40
1.0
210
0.0
220
0.0
230
-1.0
100
AcDbArc
 50
270.0
 51
0.0
  0
ARC
  5
84D4
330
1E
100
AcDbEntity
  8
18
 48
2.0
100
AcDbCircle
 10
-56.49999999999955
 20
-409.0000000000001
 30
0.0
 40
1.0
210
0.0
220
0.0
230
-1.0
100
AcDbArc
 50
180.0
 51
270.0
  0
CIRCLE
  5
84D5
330
1E
100
AcDbEntity
  8
18
 48
2.0
100
AcDbCircle
 10
52.50000255164173
 20
-405.0000030202424
 30
0.0
 40
2.175250057989686
  0
LINE
  5
84D6
330
1E
100
AcDbEntity
  8
18
 48
2.0
100
AcDbLine
 10
47.49999999999977
 20
-400.0
 30
0.0
 11
48.99999999999955
 21
-400.0074660790678
 31
0.0
  0
LINE
  5
84D7
330
1E
100
AcDbEntity
  8
18
 48
2.0
100
AcDbLine
 10
48.99999999999955
 20
-401.2074660790678
 30
0.0
 11
47.49999999999977
 21
-403.8055422904212
 31
0.0
  0
LINE
  5
84D8
330
1E
100
AcDbEntity
  8
18
 48
2.0
100
AcDbLine
 10
48.99999999999955
 20
-400.0074660790678
 30
0.0
 11
48.99999999999955
 21
-401.2074660790678
 31
0.0
  0
LINE
  5
84D9
330
1E
100
AcDbEntity
  8
18
 48
2.0
100
AcDbLine
 10
57.49999999999977
 20
-400.0
 30
0.0
 11
56.0
 21
-400.0074660790678
 31
0.0
  0
LINE
  5
84DA
330
1E
100
AcDbEntity
  8
18
 48
2.0
100
AcDbLine
 10
56.0
 20
-401.2074660790678
 30
0.0
 11
57.49999999999977
 21
-403.8055422904212
 31
0.0
  0
LINE
  5
84DB
330
1E
100
AcDbEntity
  8
18
 48
2.0
100
AcDbLine
 10
56.0
 20
-400.0074660790678
 30
0.0
 11
56.0
 21
-401.2074660790678
 31
0.0
  0
LINE
  5
84DC
330
1E
100
AcDbEntity
  8
18
 48
2.0
100
AcDbLine
 10
87.49999999999976
 20
-400.0
 30
0.0
 11
87.49999999999976
 21
-398.0000000000001
 31
0.0
  0
LINE
  5
84DD
330
1E
100
AcDbEntity
  8
18
 48
2.0
100
AcDbLine
 10
83.00000000000023
 20
-400.0
 30
0.0
 11
87.49999999999976
 21
-400.0
 31
0.0
  0
DIMENSION
  5
84DE
330
1E
100
AcDbEntity
  8
30
100
AcDbDimension
  2
*D36
 10
100.747009574128
 20
-285.0
 30
0.0
 11
97.74700957412807
 21
-310.0
 31
0.0
 70
    32
  3
STANDARD
100
AcDbAlignedDimension
 13
59.99999999999978
 23
-335.0
 33
0.0
 14
59.99999999999978
 24
-285.0
 34
0.0
 50
270.0
100
AcDbRotatedDimension
  0
DIMENSION
  5
84DF
330
1E
100
AcDbEntity
  8
30
100
AcDbDimension
  2
*D37
 10
120.2470095741279
 20
-272.5
 30
0.0
 11
117.247009574128
 21
-310.0000000000001
 31
0.0
 70
    32
  3
STANDARD
100
AcDbAlignedDimension
 13
55.00000001649985
 23
-347.5000000000001
 33
0.0
 14
55.00000001649985
 24
-272.5
 34
0.0
 50
270.0
100
AcDbRotatedDimension
  0
LINE
  5
84E1
330
1E
100
AcDbEntity
  8
18
 48
2.0
100
AcDbLine
 10
-52.50000030600197
 20
-219.9999982556959
 30
0.0
 11
-52.50000030600197
 21
-225.5000016063215
 31
0.0
  0
LINE
  5
84E3
330
1E
100
AcDbEntity
  8
18
 48
2.0
100
AcDbLine
 10
-57.5
 20
-310.0
 30
0.0
 11
92.49999999999976
 21
-310.0
 31
0.0
  0
LINE
  5
84E4
330
1E
100
AcDbEntity
  8
18
 48
2.0
100
AcDbLine
 10
-57.5
 20
-362.5
 30
0.0
 11
92.49999999999976
 21
-362.5000000000001
 31
0.0
  0
LINE
  5
84E5
330
1E
100
AcDbEntity
  8
18
 48
2.0
100
AcDbLine
 10
-57.5
 20
-257.5
 30
0.0
 11
92.49999999999976
 21
-257.5
 31
0.0
  0
LINE
  5
84E6
330
1E
100
AcDbEntity
  8
18
 48
2.0
100
AcDbLine
 10
-57.5
 20
-360.0
 30
0.0
 11
92.49999999999976
 21
-360.0000000000001
 31
0.0
  0
LINE
  5
84E7
330
1E
100
AcDbEntity
  8
18
 48
2.0
100
AcDbLine
 10
-57.5
 20
-260.0
 30
0.0
 11
92.49999999999976
 21
-260.0
 31
0.0
  0
LINE
  5
84E8
330
1E
100
AcDbEntity
  8
18
 48
2.0
100
AcDbLine
 10
-52.5
 20
-364.0000000000001
 30
0.0
 11
-52.5
 21
-256.0
 31
0.0
  0
LINE
  5
84E9
330
1E
100
AcDbEntity
  8
18
 48
2.0
100
AcDbLine
 10
-52.5
 20
-369.0000000000001
 30
0.0
 11
-50.0
 21
-369.0000000000001
 31
0.0
  0
LINE
  5
84EA
330
1E
100
AcDbEntity
  8
18
 48
2.0
100
AcDbLine
 10
-52.5
 20
-364.0000000000001
 30
0.0
 11
-52.5
 21
-365.5000000000001
 31
0.0
  0
LINE
  5
84EB
330
1E
100
AcDbEntity
  8
18
 48
2.0
100
AcDbLine
 10
-52.5
 20
-369.0000000000001
 30
0.0
 11
-52.5
 21
-365.5000000000001
 31
0.0
  0
LINE
  5
84EC
330
1E
100
AcDbEntity
  8
12
100
AcDbLine
 10
-22.5
 20
-347.5000000000001
 30
0.0
 11
-12.5
 21
-347.5000000000001
 31
0.0
  0
LINE
  5
84ED
330
1E
100
AcDbEntity
  8
12
100
AcDbLine
 10
-17.5
 20
-342.5000000000001
 30
0.0
 11
-17.5
 21
-352.5000000000001
 31
0.0
  0
CIRCLE
  5
84EE
330
1E
100
AcDbEntity
  8
12
100
AcDbCircle
 10
-17.5
 20
-347.5000000000001
 30
0.0
 40
3.000000000000001
  0
LINE
  5
84EF
330
1E
100
AcDbEntity
  8
12
100
AcDbLine
 10
-22.5
 20
-272.5
 30
0.0
 11
-12.5
 21
-272.5
 31
0.0
  0
LINE
  5
84F0
330
1E
100
AcDbEntity
  8
12
100
AcDbLine
 10
-17.5
 20
-267.5
 30
0.0
 11
-17.5
 21
-277.4999999999999
 31
0.0
  0
CIRCLE
  5
84F1
330
1E
100
AcDbEntity
  8
12
100
AcDbCircle
 10
-17.5
 20
-272.5
 30
0.0
 40
3.000000000000001
  0
LINE
  5
84F2
330
1E
100
AcDbEntity
  8
18
 48
2.0
100
AcDbLine
 10
-49.99999547980928
 20
-250.9999951198345
 30
0.0
 11
-49.99999547980928
 21
-225.5000016063215
 31
0.0
  0
LINE
  5
84F3
330
1E
100
AcDbEntity
  8
18
 48
2.0
100
AcDbLine
 10
-52.5
 20
-254.4999999999999
 30
0.0
 11
-52.5
 21
-251.0
 31
0.0
  0
LINE
  5
84F4
330
1E
100
AcDbEntity
  8
18
 48
2.0
100
AcDbLine
 10
-52.5
 20
-254.4999999999999
 30
0.0
 11
-52.5
 21
-256.0
 31
0.0
  0
LINE
  5
84F5
330
1E
100
AcDbEntity
  8
18
 48
2.0
100
AcDbLine
 10
-52.5
 20
-251.0
 30
0.0
 11
-50.0
 21
-251.0
 31
0.0
  0
LINE
  5
84F6
330
1E
100
AcDbEntity
  8
18
 48
2.0
100
AcDbLine
 10
-49.99999547980928
 20
-225.5000016063215
 30
0.0
 11
-52.50000030600197
 21
-225.5000016063215
 31
0.0
  0
LINE
  5
84F7
330
1E
100
AcDbEntity
  8
11
100
AcDbLine
 10
45.0
 20
-284.9999999999998
 30
0.0
 11
45.0
 21
-335.0
 31
0.0
  0
LINE
  5
84F8
330
1E
100
AcDbEntity
  8
11
100
AcDbLine
 10
59.99999999999977
 20
-284.9999999999998
 30
0.0
 11
59.99999999999977
 21
-335.0
 31
0.0
  0
LINE
  5
84F9
330
1E
100
AcDbEntity
  8
18
 48
2.0
100
AcDbLine
 10
87.49999999999976
 20
-364.0000000000001
 30
0.0
 11
87.49999999999976
 21
-256.0
 31
0.0
  0
LINE
  5
84FA
330
1E
100
AcDbEntity
  8
11
100
AcDbLine
 10
45.0
 20
-335.0
 30
0.0
 11
59.99999999999977
 21
-335.0
 31
0.0
  0
LINE
  5
84FB
330
1E
100
AcDbEntity
  8
12
100
AcDbLine
 10
12.5
 20
-347.5000000000001
 30
0.0
 11
22.5
 21
-347.5000000000001
 31
0.0
  0
LINE
  5
84FC
330
1E
100
AcDbEntity
  8
12
100
AcDbLine
 10
17.5
 20
-342.5000000000001
 30
0.0
 11
17.5
 21
-352.5000000000001
 31
0.0
  0
LINE
  5
84FD
330
1E
100
AcDbEntity
  8
12
100
AcDbLine
 10
52.49999999999977
 20
-342.5000000000001
 30
0.0
 11
52.49999999999977
 21
-352.5000000000001
 31
0.0
  0
CIRCLE
  5
84FE
330
1E
100
AcDbEntity
  8
12
100
AcDbCircle
 10
52.49999999999977
 20
-347.5000000000001
 30
0.0
 40
3.000000000000001
  0
LINE
  5
84FF
330
1E
100
AcDbEntity
  8
12
100
AcDbLine
 10
47.49999999999977
 20
-347.5000000000001
 30
0.0
 11
57.49999999999977
 21
-347.5000000000001
 31
0.0
  0
LINE
  5
8500
330
1E
100
AcDbEntity
  8
18
 48
2.0
100
AcDbLine
 10
87.49999999999976
 20
-365.5000000000001
 30
0.0
 11
87.49999999999976
 21
-364.0000000000001
 31
0.0
  0
LINE
  5
8501
330
1E
100
AcDbEntity
  8
18
 48
2.0
100
AcDbLine
 10
87.49999999999976
 20
-369.5
 30
0.0
 11
87.49999999999976
 21
-365.5000000000001
 31
0.0
  0
LINE
  5
8502
330
1E
100
AcDbEntity
  8
11
100
AcDbLine
 10
45.0
 20
-285.0
 30
0.0
 11
59.99999999999977
 21
-285.0
 31
0.0
  0
LINE
  5
8503
330
1E
100
AcDbEntity
  8
12
100
AcDbLine
 10
12.5
 20
-272.5
 30
0.0
 11
22.5
 21
-272.5
 31
0.0
  0
LINE
  5
8504
330
1E
100
AcDbEntity
  8
12
100
AcDbLine
 10
17.5
 20
-267.5
 30
0.0
 11
17.5
 21
-277.4999999999999
 31
0.0
  0
LINE
  5
8505
330
1E
100
AcDbEntity
  8
12
100
AcDbLine
 10
52.49999999999977
 20
-267.5
 30
0.0
 11
52.49999999999977
 21
-277.4999999999999
 31
0.0
  0
CIRCLE
  5
8506
330
1E
100
AcDbEntity
  8
12
100
AcDbCircle
 10
52.49999999999977
 20
-272.5
 30
0.0
 40
3.000000000000001
  0
LINE
  5
8507
330
1E
100
AcDbEntity
  8
12
100
AcDbLine
 10
47.49999999999977
 20
-272.5
 30
0.0
 11
57.49999999999977
 21
-272.5
 31
0.0
  0
LINE
  5
8508
330
1E
100
AcDbEntity
  8
18
 48
2.0
100
AcDbLine
 10
-12.99999999999975
 20
-220.0
 30
0.0
 11
13.0
 21
-220.0
 31
0.0
  0
LINE
  5
8509
330
1E
100
AcDbEntity
  8
18
 48
2.0
100
AcDbLine
 10
-48.0
 20
-220.0
 30
0.0
 11
-22.0
 21
-220.0
 31
0.0
  0
LINE
  5
850A
330
1E
100
AcDbEntity
  8
18
 48
2.0
100
AcDbLine
 10
-48.0
 20
-220.0
 30
0.0
 11
-52.5
 21
-220.0
 31
0.0
  0
LINE
  5
850B
330
1E
100
AcDbEntity
  8
18
 48
2.0
100
AcDbLine
 10
-52.5
 20
-220.0
 30
0.0
 11
-52.5
 21
-222.0
 31
0.0
  0
LINE
  5
850C
330
1E
100
AcDbEntity
  8
18
 48
2.0
100
AcDbLine
 10
-22.5
 20
-220.0
 30
0.0
 11
-21.00000000000022
 21
-219.992533920932
 31
0.0
  0
LINE
  5
850D
330
1E
100
AcDbEntity
  8
18
 48
2.0
100
AcDbLine
 10
-20.99999999999976
 20
-218.7925339209323
 30
0.0
 11
-22.5
 21
-216.1944577095787
 31
0.0
  0
ARC
  5
850E
330
1E
100
AcDbEntity
  8
18
 48
2.0
100
AcDbCircle
 10
21.49999999999999
 20
-211.0
 30
0.0
 40
1.0
210
0.0
220
0.0
230
-1.0
100
AcDbArc
 50
0.0
 51
90.0
  0
LINE
  5
850F
330
1E
100
AcDbEntity
  8
18
 48
2.0
100
AcDbLine
 10
-22.5
 20
-211.0
 30
0.0
 11
-22.5
 21
-216.1944577095787
 31
0.0
  0
LINE
  5
8510
330
1E
100
AcDbEntity
  8
18
 48
2.0
100
AcDbLine
 10
-12.5
 20
-211.0
 30
0.0
 11
-12.5
 21
-216.1944577095788
 31
0.0
  0
CIRCLE
  5
8511
330
1E
100
AcDbEntity
  8
18
 48
2.0
100
AcDbCircle
 10
-17.49999935345408
 20
-215.0000113126798
 30
0.0
 40
2.175250057989686
  0
LINE
  5
8512
330
1E
100
AcDbEntity
  8
18
 48
2.0
100
AcDbLine
 10
-21.00000000000022
 20
-219.992533920932
 30
0.0
 11
-20.99999999999976
 21
-218.7925339209323
 31
0.0
  0
LINE
  5
8513
330
1E
100
AcDbEntity
  8
18
 48
2.0
100
AcDbLine
 10
-14.0
 20
-219.992533920932
 30
0.0
 11
-14.0
 21
-218.7925339209323
 31
0.0
  0
LINE
  5
8514
330
1E
100
AcDbEntity
  8
18
 48
2.0
100
AcDbLine
 10
-14.0
 20
-218.792533920932
 30
0.0
 11
-12.5
 21
-216.1944577095788
 31
0.0
  0
LINE
  5
8515
330
1E
100
AcDbEntity
  8
18
 48
2.0
100
AcDbLine
 10
-12.5
 20
-220.0
 30
0.0
 11
-14.0
 21
-219.992533920932
 31
0.0
  0
LINE
  5
8516
330
1E
100
AcDbEntity
  8
18
 48
2.0
100
AcDbLine
 10
-21.49999999999999
 20
-210.0
 30
0.0
 11
-13.50000000000022
 21
-210.0
 31
0.0
  0
ARC
  5
8517
330
1E
100
AcDbEntity
  8
18
 48
2.0
100
AcDbCircle
 10
13.50000000000022
 20
-211.0
 30
0.0
 40
1.0
210
0.0
220
0.0
230
-1.0
100
AcDbArc
 50
90.0
 51
180.0
  0
LINE
  5
8518
330
1E
100
AcDbEntity
  8
18
 48
2.0
100
AcDbLine
 10
22.00000000000021
 20
-220.0
 30
0.0
 11
48.00000000000022
 21
-220.0
 31
0.0
  0
LINE
  5
851A
330
1E
100
AcDbEntity
  8
18
 48
2.0
100
AcDbLine
 10
13.5
 20
-210.0
 30
0.0
 11
21.49999999999977
 21
-210.0
 31
0.0
  0
CIRCLE
  5
851B
330
1E
100
AcDbEntity
  8
18
 48
2.0
100
AcDbCircle
 10
-17.5
 20
-215.0
 30
0.0
 40
2.25
210
0.0
220
0.0
230
-1.0
  0
LINE
  5
851C
330
1E
100
AcDbEntity
  8
18
 48
2.0
100
AcDbLine
 10
12.5
 20
-211.0
 30
0.0
 11
12.5
 21
-216.1944577095787
 31
0.0
  0
LINE
  5
851D
330
1E
100
AcDbEntity
  8
18
 48
2.0
100
AcDbLine
 10
13.99999999999977
 20
-218.7925339209323
 30
0.0
 11
12.5
 21
-216.1944577095787
 31
0.0
  0
LINE
  5
851E
330
1E
100
AcDbEntity
  8
18
 48
2.0
100
AcDbLine
 10
12.5
 20
-220.0
 30
0.0
 11
13.99999999999977
 21
-219.992533920932
 31
0.0
  0
LINE
  5
851F
330
1E
100
AcDbEntity
  8
18
 48
2.0
100
AcDbLine
 10
13.99999999999977
 20
-219.992533920932
 30
0.0
 11
13.99999999999977
 21
-218.7925339209323
 31
0.0
  0
ARC
  5
8520
330
1E
100
AcDbEntity
  8
18
 48
2.0
100
AcDbCircle
 10
-13.5
 20
-211.0
 30
0.0
 40
1.0
210
0.0
220
0.0
230
-1.0
100
AcDbArc
 50
0.0
 51
90.0
  0
LINE
  5
8523
330
1E
100
AcDbEntity
  8
18
 48
2.0
100
AcDbLine
 10
22.5
 20
-211.0
 30
0.0
 11
22.5
 21
-216.1944577095788
 31
0.0
  0
LINE
  5
8524
330
1E
100
AcDbEntity
  8
18
 48
2.0
100
AcDbLine
 10
21.0
 20
-218.792533920932
 30
0.0
 11
22.5
 21
-216.1944577095788
 31
0.0
  0
LINE
  5
8525
330
1E
100
AcDbEntity
  8
18
 48
2.0
100
AcDbLine
 10
22.5
 20
-220.0
 30
0.0
 11
21.0
 21
-219.992533920932
 31
0.0
  0
LINE
  5
8526
330
1E
100
AcDbEntity
  8
18
 48
2.0
100
AcDbLine
 10
21.0
 20
-219.992533920932
 30
0.0
 11
21.0
 21
-218.7925339209323
 31
0.0
  0
ARC
  5
8527
330
1E
100
AcDbEntity
  8
18
 48
2.0
100
AcDbCircle
 10
-21.49999999999977
 20
-211.0
 30
0.0
 40
1.0
210
0.0
220
0.0
230
-1.0
100
AcDbArc
 50
90.0
 51
180.0
  0
LINE
  5
8528
330
1E
100
AcDbEntity
  8
18
 48
2.0
100
AcDbLine
 10
57.49999403653169
 20
-219.9999982556959
 30
0.0
 11
83.74999020906875
 21
-219.9999982556959
 31
0.0
  0
LINE
  5
8529
330
1E
100
AcDbEntity
  8
18
 48
2.0
100
AcDbLine
 10
57.0
 20
-220.0
 30
0.0
 11
83.00000000000023
 21
-220.0
 31
0.0
  0
LINE
  5
852A
330
1E
100
AcDbEntity
  8
18
 48
2.0
100
AcDbLine
 10
47.49999999999977
 20
-211.0
 30
0.0
 11
47.49999999999977
 21
-216.1944577095788
 31
0.0
  0
LINE
  5
852B
330
1E
100
AcDbEntity
  8
18
 48
2.0
100
AcDbLine
 10
57.49999999999977
 20
-211.0
 30
0.0
 11
57.49999999999977
 21
-216.1944577095788
 31
0.0
  0
CIRCLE
  5
852C
330
1E
100
AcDbEntity
  8
18
 48
2.0
100
AcDbCircle
 10
52.50000255164173
 20
-215.0000113126798
 30
0.0
 40
2.175250057989686
  0
LINE
  5
852D
330
1E
100
AcDbEntity
  8
18
 48
2.0
100
AcDbLine
 10
47.49999999999977
 20
-220.0
 30
0.0
 11
48.99999999999955
 21
-219.992533920932
 31
0.0
  0
LINE
  5
852E
330
1E
100
AcDbEntity
  8
18
 48
2.0
100
AcDbLine
 10
48.99999999999955
 20
-219.992533920932
 30
0.0
 11
49.00000000000023
 21
-218.7925339209323
 31
0.0
  0
LINE
  5
852F
330
1E
100
AcDbEntity
  8
18
 48
2.0
100
AcDbLine
 10
49.00000000000023
 20
-218.792533920932
 30
0.0
 11
47.49999999999977
 21
-216.1944577095788
 31
0.0
  0
LINE
  5
8530
330
1E
100
AcDbEntity
  8
18
 48
2.0
100
AcDbLine
 10
57.49999999999977
 20
-220.0
 30
0.0
 11
56.0
 21
-219.992533920932
 31
0.0
  0
LINE
  5
8531
330
1E
100
AcDbEntity
  8
18
 48
2.0
100
AcDbLine
 10
56.0
 20
-219.992533920932
 30
0.0
 11
56.0
 21
-218.7925339209323
 31
0.0
  0
LINE
  5
8532
330
1E
100
AcDbEntity
  8
18
 48
2.0
100
AcDbLine
 10
56.0
 20
-218.792533920932
 30
0.0
 11
57.49999999999977
 21
-216.1944577095788
 31
0.0
  0
LINE
  5
8533
330
1E
100
AcDbEntity
  8
18
 48
2.0
100
AcDbLine
 10
48.5
 20
-210.0
 30
0.0
 11
56.49999999999955
 21
-210.0
 31
0.0
  0
ARC
  5
8534
330
1E
100
AcDbEntity
  8
18
 48
2.0
100
AcDbCircle
 10
-48.5
 20
-211.0
 30
0.0
 40
1.0
210
0.0
220
0.0
230
-1.0
100
AcDbArc
 50
0.0
 51
90.0
  0
ARC
  5
8535
330
1E
100
AcDbEntity
  8
18
 48
2.0
100
AcDbCircle
 10
-56.49999999999955
 20
-211.0
 30
0.0
 40
1.0
210
0.0
220
0.0
230
-1.0
100
AcDbArc
 50
90.0
 51
180.0
  0
LINE
  5
8537
330
1E
100
AcDbEntity
  8
18
 48
2.0
100
AcDbLine
 10
83.74999020906875
 20
-219.9999982556959
 30
0.0
 11
86.99998558262198
 21
-219.9999982556959
 31
0.0
  0
ARC
  5
8538
330
1E
100
AcDbEntity
  8
18
 48
2.0
100
AcDbCircle
 10
86.99998558262198
 20
-220.5000161772636
 30
0.0
 40
0.4999999906281084
100
AcDbArc
 50
0.0
 51
90.0
  0
SPLINE
  5
859F
330
1E
100
AcDbEntity
  8
30
  6
CONTINUOUS
100
AcDbSpline
210
0.0
220
0.0
230
1.0
 70
     8
 71
     3
 72
    10
 73
     6
 74
     4
 42
0.0000000001
 43
0.0000000001
 44
0.0000000001
 40
0.0
 40
0.0
 40
0.0
 40
0.0
 40
8.602325267042626
 40
24.75781968844613
 40
36.79941426723843
 40
36.79941426723843
 40
36.79941426723843
 40
36.79941426723843
 10
336.0
 20
-263.0
 30
0.0
 10
338.2417750636664
 20
-260.6467902362619
 30
0.0
 10
344.6936890619604
 20
-253.8741629278145
 30
0.0
 10
357.6653968919886
 20
-269.1652419320124
 30
0.0
 10
364.2065809270335
 20
-259.9397537835902
 30
0.0
 10
367.0
 20
-256.0
 30
0.0
 11
336.0
 21
-263.0
 31
0.0
 11
343.0
 21
-258.0
 31
0.0
 11
358.0
 21
-264.0
 31
0.0
 11
367.0
 21
-256.0
 31
0.0
  0
LEADER
  5
85EE
330
1E
100
AcDbEntity
  8
30
100
AcDbLeader
  3
STANDARD
 76
     3
 10
347.9999999999998
 20
-282.0000000000001
 30
0.0
 10
333.1458822902714
 20
-288.8593533752838
 30
0.0
 10
321.1458822902713
 20
-288.8593533752838
 30
0.0
211
-1.0
221
0.0
231
0.0
210
0.0
220
0.0
230
-1.0
1001
ACAD
1000
DSTYLE
1002
{
1070
     5
1000
OPEN
1070
   342
1005
3B2
1002
}
  0
TEXT
  5
8850
330
1E
100
AcDbEntity
  8
30
100
AcDbText
 10
63.30990602563986
 20
-250.6896589982217
 30
0.0
 40
5.0
  1
%%c6
100
AcDbText
  0
LEADER
  5
8851
330
1E
100
AcDbEntity
  8
30
100
AcDbLeader
  3
STANDARD
 76
     3
 10
54.83250471314653
 20
-267.8195794911141
 30
0.0
 10
60.07653568015297
 20
-253.0302348442181
 30
0.0
 10
73.64932376570499
 20
-253.0302348442181
 30
0.0
1001
ACAD
1000
DSTYLE
1002
{
1070
     5
1000
OPEN
1070
    77
1070
     0
1070
   147
1040
1.0
1070
   342
1005
3B2
1002
}
  0
MTEXT
  5
88F8
330
1E
100
AcDbEntity
  8
19
  6
CONTINUOUS
100
AcDbMText
 10
246.3851986697745
 20
164.2171914793138
 30
0.0
 40
5.0
 41
72.6907357937198
 71
     1
 72
     5
  1
S160-NJ 4P PM\PS160-GJ 4P PM\PE250-NJ 4P PM\PS250-NJ 4P PM\PS250-GJ 4P PM
  7
STANDARD1
1001
ACAD
1000
MTEXTBEGIN
1070
    73
1070
     1
1070
    44
1040
1.0
1070
    74
1070
     0
1000
MTEXTEND
1000
MTEXTBEGIN
1070
    73
1070
     1
1070
    44
1040
1.0
1070
    74
1070
     0
1000
MTEXTEND
  0
VIEWPORT
  5
9AC
330
1A
100
AcDbEntity
 67
     1
  8
0
  6
CONTINUOUS
100
AcDbViewport
 10
171.9995348790992
 20
144.1384735538403
 30
0.0
 40
488.8676857773512
 41
292.3514905034161
 68
     1
 69
     1
1001
ACAD
1000
MVIEW
1002
{
1070
    16
1010
0.0
1020
0.0
1030
0.0
1010
0.0
1020
0.0
1030
1.0
1040
0.0
1040
292.3514905034161
1040
171.9995348790992
1040
144.1384735538403
1040
50.0
1040
0.0
1040
0.0
1070
     0
1070
   100
1070
     1
1070
     1
1070
     0
1070
     0
1070
     0
1070
     0
1040
0.0
1040
0.0
1040
0.0
1040
10.0
1040
10.0
1040
10.0
1040
10.0
1070
     0
1002
{
1002
}
1002
}
  0
ENDSEC
  0
SECTION
  2
OBJECTS
  0
DICTIONARY
  5
C
330
0
100
AcDbDictionary
  3
ACAD_GROUP
350
D
  3
ACAD_LAYOUT
350
19
  3
ACAD_MLINESTYLE
350
16
  3
ACAD_PLOTSETTINGS
350
18
  3
ACAD_PLOTSTYLENAME
350
E
  3
ACDBHEADERROUNDTRIPXREC
350
8998
  3
ACDBVARIABLEDICTIONARY
350
5E0C
  0
DICTIONARY
  5
178
330
1E
100
AcDbDictionary
280
     1
  3
ACAD_LAYOUTSELFREF
360
89BA
  0
DICTIONARY
  5
17A
330
1A
100
AcDbDictionary
280
     1
  3
ACAD_LAYOUTSELFREF
360
89B9
  0
DICTIONARY
  5
D
102
{ACAD_REACTORS
330
C
102
}
330
C
100
AcDbDictionary
  0
DICTIONARY
  5
19
102
{ACAD_REACTORS
330
C
102
}
330
C
100
AcDbDictionary
  0
DICTIONARY
  5
16
102
{ACAD_REACTORS
330
C
102
}
330
C
100
AcDbDictionary
  3
STANDARD
350
17
  0
DICTIONARY
  5
18
102
{ACAD_REACTORS
330
C
102
}
330
C
100
AcDbDictionary
  0
ACDBDICTIONARYWDFLT
  5
E
102
{ACAD_REACTORS
330
C
102
}
330
C
100
AcDbDictionary
281
     1
  3
Normal
350
F
100
AcDbDictionaryWithDefault
340
F
  0
DICTIONARY
  5
8998
102
{ACAD_REACTORS
330
C
102
}
330
C
100
AcDbDictionary
  3
CEPSNTYPE
350
89A2
  3
DIMSTYLEDATA
350
89A6
  3
FINGERPRINTGUID
350
89A3
  3
HYPERLINKBASE
350
899B
  3
INSUNITS
350
89A1
  3
LAYOUTDICT
350
899D
  3
LWETCUNION
350
89A0
  3
PLOTSETDICT
350
899E
  3
PLOTSTYLNAMDICT
350
899F
  3
PSVPSCALE
350
89A5
  3
PUCSBASE
350
89A9
  3
PUCSORGBACK
350
89AF
  3
PUCSORGBOTTOM
350
89AB
  3
PUCSORGFRONT
350
89AE
  3
PUCSORGLEFT
350
89AC
  3
PUCSORGRIGHT
350
89AD
  3
PUCSORGTOP
350
89AA
  3
PUCSORTHOREF
350
89A7
  3
PUCSORTHOVIEW
350
89A8
  3
STYLESHEET
350
899C
  3
TSTACKALIGN
350
8999
  3
TSTACKSIZE
350
899A
  3
UCSBASE
350
89B2
  3
UCSORGBACK
350
89B8
  3
UCSORGBOTTOM
350
89B4
  3
UCSORGFRONT
350
89B7
  3
UCSORGLEFT
350
89B5
  3
UCSORGRIGHT
350
89B6
  3
UCSORGTOP
350
89B3
  3
UCSORTHOREF
350
89B0
  3
UCSORTHOVIEW
350
89B1
  3
VERSIONGUID
350
89A4
  0
DICTIONARY
  5
5E0C
102
{ACAD_REACTORS
330
C
102
}
330
C
100
AcDbDictionary
  3
DIMASSOC
350
5E0D
  0
XRECORD
  5
89BA
102
{ACAD_REACTORS
330
178
102
}
330
178
100
AcDbXrecord
340
1E
  0
XRECORD
  5
89B9
102
{ACAD_REACTORS
330
17A
102
}
330
17A
100
AcDbXrecord
340
1A
  0
MLINESTYLE
  5
17
102
{ACAD_REACTORS
330
16
102
}
330
16
100
AcDbMlineStyle
  2
STANDARD
 70
     0
  3

 62
   256
 51
90.0
 52
90.0
 71
     2
 49
0.5
 62
   256
  6
BYLAYER
 49
-0.5
 62
   256
  6
BYLAYER
  0
ACDBPLACEHOLDER
  5
F
102
{ACAD_REACTORS
330
E
102
}
330
E
100
AcDbPlaceHolder
280
     0
  0
XRECORD
  5
89A2
102
{ACAD_REACTORS
330
8998
102
}
330
8998
100
AcDbXrecord
 90
        0
  0
XRECORD
  5
89A6
102
{ACAD_REACTORS
330
8998
102
}
330
8998
100
AcDbXrecord
1000
DSTYLE
1002
{
1070
    79
 70
     3
1070
   341
340
3B2
1070
   342
340
3B2
1002
}
  0
XRECORD
  5
89A3
102
{ACAD_REACTORS
330
8998
102
}
330
8998
100
AcDbXrecord
  1

  0
XRECORD
  5
899B
102
{ACAD_REACTORS
330
8998
102
}
330
8998
100
AcDbXrecord
  1

  0
XRECORD
  5
89A1
102
{ACAD_REACTORS
330
8998
102
}
330
8998
100
AcDbXrecord
 90
        0
  0
XRECORD
  5
899D
102
{ACAD_REACTORS
330
8998
102
}
330
8998
100
AcDbXrecord
340
19
  0
XRECORD
  5
89A0
102
{ACAD_REACTORS
330
8998
102
}
330
8998
100
AcDbXrecord
 90
    10781
  0
XRECORD
  5
899E
102
{ACAD_REACTORS
330
8998
102
}
330
8998
100
AcDbXrecord
340
18
  0
XRECORD
  5
899F
102
{ACAD_REACTORS
330
8998
102
}
330
8998
100
AcDbXrecord
340
E
  0
XRECORD
  5
89A5
102
{ACAD_REACTORS
330
8998
102
}
330
8998
100
AcDbXrecord
 40
0.0
  0
XRECORD
  5
89A9
102
{ACAD_REACTORS
330
8998
102
}
330
8998
100
AcDbXrecord
340
0
  0
XRECORD
  5
89AF
102
{ACAD_REACTORS
330
8998
102
}
330
8998
100
AcDbXrecord
 10
0.0
 20
0.0
 30
0.0
  0
XRECORD
  5
89AB
102
{ACAD_REACTORS
330
8998
102
}
330
8998
100
AcDbXrecord
 10
0.0
 20
0.0
 30
0.0
  0
XRECORD
  5
89AE
102
{ACAD_REACTORS
330
8998
102
}
330
8998
100
AcDbXrecord
 10
0.0
 20
0.0
 30
0.0
  0
XRECORD
  5
89AC
102
{ACAD_REACTORS
330
8998
102
}
330
8998
100
AcDbXrecord
 10
0.0
 20
0.0
 30
0.0
  0
XRECORD
  5
89AD
102
{ACAD_REACTORS
330
8998
102
}
330
8998
100
AcDbXrecord
 10
0.0
 20
0.0
 30
0.0
  0
XRECORD
  5
89AA
102
{ACAD_REACTORS
330
8998
102
}
330
8998
100
AcDbXrecord
 10
0.0
 20
0.0
 30
0.0
  0
XRECORD
  5
89A7
102
{ACAD_REACTORS
330
8998
102
}
330
8998
100
AcDbXrecord
340
0
  0
XRECORD
  5
89A8
102
{ACAD_REACTORS
330
8998
102
}
330
8998
100
AcDbXrecord
 70
     0
  0
XRECORD
  5
899C
102
{ACAD_REACTORS
330
8998
102
}
330
8998
100
AcDbXrecord
  1
KIKI.ctb
  0
XRECORD
  5
8999
102
{ACAD_REACTORS
330
8998
102
}
330
8998
100
AcDbXrecord
 90
        1
  0
XRECORD
  5
899A
102
{ACAD_REACTORS
330
8998
102
}
330
8998
100
AcDbXrecord
 90
       70
  0
XRECORD
  5
89B2
102
{ACAD_REACTORS
330
8998
102
}
330
8998
100
AcDbXrecord
340
0
  0
XRECORD
  5
89B8
102
{ACAD_REACTORS
330
8998
102
}
330
8998
100
AcDbXrecord
 10
0.0
 20
0.0
 30
0.0
  0
XRECORD
  5
89B4
102
{ACAD_REACTORS
330
8998
102
}
330
8998
100
AcDbXrecord
 10
0.0
 20
0.0
 30
0.0
  0
XRECORD
  5
89B7
102
{ACAD_REACTORS
330
8998
102
}
330
8998
100
AcDbXrecord
 10
0.0
 20
0.0
 30
0.0
  0
XRECORD
  5
89B5
102
{ACAD_REACTORS
330
8998
102
}
330
8998
100
AcDbXrecord
 10
0.0
 20
0.0
 30
0.0
  0
XRECORD
  5
89B6
102
{ACAD_REACTORS
330
8998
102
}
330
8998
100
AcDbXrecord
 10
0.0
 20
0.0
 30
0.0
  0
XRECORD
  5
89B3
102
{ACAD_REACTORS
330
8998
102
}
330
8998
100
AcDbXrecord
 10
0.0
 20
0.0
 30
0.0
  0
XRECORD
  5
89B0
102
{ACAD_REACTORS
330
8998
102
}
330
8998
100
AcDbXrecord
340
0
  0
XRECORD
  5
89B1
102
{ACAD_REACTORS
330
8998
102
}
330
8998
100
AcDbXrecord
 70
     0
  0
XRECORD
  5
89A4
102
{ACAD_REACTORS
330
8998
102
}
330
8998
100
AcDbXrecord
  1
{E7288DBC-A414-4994-B4DD-1472C2422901}
  0
DICTIONARYVAR
  5
5E0D
102
{ACAD_REACTORS
330
5E0C
102
}
330
5E0C
100
DictionaryVariables
280
     0
  1
1
  0
ENDSEC
  0
EOF
